What TV show are you watching right now? V5 | Dark Angel, Vol. 1 by Kia Asamiya EPUB version | Various Artists – Linval Presents Dub Landing Vol. 1 (2018)

Скачать через торрент Мастера Меча Онлайн: Альтернативная «Призрачная пуля» Sword Art Online Alternative: Gun Gale Online бесплатно Аниме Все серии на русском torrent

Статистика раздачи
Размер:  615 MB   |    Зарегистрирован:  3 месяца 9 дней   |    .torrent скачан:  32 раза   |   
Раздают:  1  
   
загрузка...
 
Автор Сообщение

Galfimbul

avatar Galfimbul



Страна: Япония
Год выпуска: 2018
Жанр: Экшен, Фэнтези, Фантастика
Тип: TV
Продолжительность: ?? эп. ~24 мин
Режиссер: Масаюки Сакой
Студия:
Озвучка: Многоголосая / AniLibria | SAMPLE
—HectoR(муж)
—Sharon(муж)
—Hekomi(жен)
—Aemi(жен)
—Amikiri(жен)
Перевод: Sovet Romantica
Описание: В онлайн-мире можно быть, кем угодно. Это и привлекает в нём тех, кого в настоящей жизни что-то не устраивает, но и изменить они это не в силах. Создавая персонажа в игре, ты можешь выбрать любой пол, любую внешность, даже характер можешь постараться сделать максимально не похожим на свой. Главное в такой маскировке - не проболтаться и держать марку, тогда превращение можно считать успешным.

Главная героиня Кохируимаки Карэн сильно комплексует по поводу своего роста. Среди миниатюрных японок она выглядит настоящим гигантом, поэтому у неё не складывается даже с обычным общением, а про личную жизнь уже и говорить не стоит. Найдя игру "Призрачная пуля онлайн”, Карэн создаёт там девушку по имени ЛЛЕНН, сделав её милашкой крошечного роста, облачённой в военную форму пыльно-розового цвета. Полная противоположность готова! В игре, в которую в большинстве своём играют мужчины, ЛЛЕНН умудряется познакомиться с некоей Питоху, по всей видимости, женщиной средних лет. Вместе девушки решают принять участие в ивенте "Схватка отрядов”.
Информационные ссылки:: AniDB | MyAnimeList | World Art
Качество: HDTVRip
Тип релиза: Без хардсаба
Формат видео: MKV
Автор рипа: Leopard-Raws
Видео: AVC, 8 bits, 1280x720, ~3200 kbps, 23,976 fps
Аудио: RUS, AAC, 48000 Hz, 192 kbps, 2 ch; Язык Русский (в составе контейнера) ;
Аудио 2: JAP, AAC, 48000 Hz, 192 kbps, 2 ch;
Субтитры: RUS, ASS (полные, в составе контейнера) Sovet Romantica (WolteR, Alvakarp)
Формат : MatroskaВерсия формата : Version 4 / Version 2Размер файла : 615 МбайтПродолжительность : 23 м. 59 с.Общий поток : 3585 Кбит/секДата кодирования : UTC 2018-04-08 18:55:04Программа кодирования : mkvmerge v22.0.0 ('At The End Of The World') 64-bitБиблиотека кодирования : libebml v1.3.5 + libmatroska v1.4.8Attachments : SAOUI-Bold.otf / SAOUI-Regular.otf / SAOUIWelcome-Bold.otf / SAOUIWelcome-Regular.otf / 4328.ttf / GraffitiC1 Medium.otf / Research Remix Normal.otf / 13275.ttf / 2ldTorMU.ttf / Graffiti1CTT_0.ttf

ВидеоИдентификатор : 1Формат : AVCФормат/Информация : Advanced Video CodecПрофиль формата : [email protected]Настройки формата : CABAC / 4 Ref FramesПараметр CABAC формата : ДаПараметр RefFrames формата : 4 кадраИдентификатор кодека : V_MPEG4/ISO/AVCПродолжительность : 23 м. 59 с.Битрейт : 3197 Кбит/секШирина : 1280 пикселейВысота : 720 пикселейСоотношение сторон : 16:9Режим частоты кадров : ПостоянныйЧастота кадров : 23,976 (24000/1001) кадра/секЦветовое пространство : YUVСубдискретизация насыщенности : 4:2:0Битовая глубина : 8 битТип развёртки : ПрогрессивнаяБит/(Пиксели*Кадры) : 0.145Размер потока : 549 Мбайт (89%)Заголовок : Original [Leopard-Raws]Библиотека кодирования : x264 core 129 r2245+729M 1a52e03Настройки программы : cabac=1 / ref=4 / deblock=1:1:-1 / analyse=0x3:0x113 / me=umh / subme=9 / psy=1 / fade_compensate=0.00 / psy_rd=1.00:0.00 / mixed_ref=1 / me_range=24 / chroma_me=1 / trellis=2 / 8x8dct=1 / cqm=0 / deadzone=21,11 / fast_pskip=1 / chroma_qp_offset=-2 / threads=8 / lookahead_threads=1 / sliced_threads=0 / nr=0 / decimate=1 / interlaced=0 / bluray_compat=0 / constrained_intra=0 / fgo=0 / bframes=9 / b_pyramid=2 / b_adapt=2 / b_bias=0 / direct=1 / weightb=1 / open_gop=0 / weightp=2 / keyint=240 / keyint_min=24 / scenecut=40 / intra_refresh=0 / rc=crf / mbtree=0 / crf=16.5 / qcomp=0.72 / qpmin=0 / qpmax=69 / qpstep=4 / ip_ratio=1.40 / pb_ratio=1.30 / aq=1:0.85Язык : JapaneseDefault : ДаForced : ДаЦветовой диапазон : LimitedОсновные цвета : BT.709Характеристики трансфера : BT.709Коэффициенты матрицы : BT.709

Аудио #1Идентификатор : 2Формат : AACФормат/Информация : Advanced Audio CodecПрофиль формата : LCИдентификатор кодека : A_AAC-2Продолжительность : 23 м. 59 с.Битрейт : 192 Кбит/секКаналы : 2 каналаРасположение каналов : Front: L RЧастота : 48,0 КГцЧастота кадров : 46,875 кадров/сек (1024 SPF)Метод сжатия : С потерямиРазмер потока : 32,5 Мбайт (5%)Заголовок : Aemi & Amkiri & Hector & Hekomi & SharonЯзык : RussianDefault : ДаForced : Да

Аудио #2Идентификатор : 3Формат : AACФормат/Информация : Advanced Audio CodecПрофиль формата : LCИдентификатор кодека : A_AAC-2Продолжительность : 23 м. 59 с.Битрейт : 192 Кбит/секКаналы : 2 каналаРасположение каналов : Front: L RЧастота : 48,0 КГцЧастота кадров : 46,875 кадров/сек (1024 SPF)Метод сжатия : С потерямиРазмер потока : 33,0 Мбайт (5%)Заголовок : Original [Leopard-Raws]Язык : JapaneseDefault : НетForced : Нет

ТекстИдентификатор : 4Формат : ASSИдентификатор кодека : S_TEXT/ASSИдентификатор кодека/Информация : Advanced Sub Station AlphaПродолжительность : 23 м. 47 с.Битрейт : 167 бит/секElementCount : 345Метод сжатия : Без потерьРазмер потока : 29,2 Кбайт (0%)Заголовок : Sovet RomanticaЯзык : RussianDefault : НетForced : Нет

01. Squad Jam (Отрял Джэм)
02. GGO
03.
04.
05.
06.
07.
08.
09.
10.
11.
12.


Добавлена 1 серия

Трекер:  [ 08-Апр-2018 22:30 ]

  

Скачать .torrent

Размер .torrent файла 12 KB


Размер: 615 MB
Хэш (hash) релиза: 68542962a09273081fce3bce451fd33c43c26d33
Подписка на обновления:

Еще никто не оставлял запись к записи скачать торрент Мастера Меча Онлайн: Альтернативная «Призрачная пуля» Sword Art Online Alternative: Gun Gale Online . Будь первым!

!Обратная связь