[O'Reilly Media] Hilary Mason An Introduction to Machine Learning with Data Web
Oedipus Rex

Скачать через торрент Лидия Фильм бесплатно в хорошем качестве torrent

Скачивайте на UnionPeer.org фильмы через торрент без регистрации. Новинки кино в хорошем качестве через торрент. На UnionPeer.org можно скачать через торрент фильмы 2014 и 2015 годов. Самые новые фильмы.

Скачать торрент Лидия бесплатно через .torrent фильм мультфильм сериал

Статистика раздачи
Размер:  1.37 GB   |    Зарегистрирован:  12 дней   |    .torrent скачан:  38 раз   |   
Раздают:  1   Качают:  45  
   
загрузка...
 
Автор Сообщение

Galfimbul

avatar Galfimbul


Лидия

Жанр: Мелодрама
Год выпуска: 2018
Продолжительность: 01:45:14
Режиссёр: Пётр Степин
В ролях: Мария Куликова, Анна Мареева, Алексей Фатеев, Эрик Абрамович, Сергей Пукита, Надежда Анципович, Артем Курень, Тамара Миронова, Максим Брагинец, Виктор Молчан, Лариса Маршалова
Описание: Лидия Никитина (Мария Куликова) в жизни всего добилась сама. Одна воспитывала дочь и в одиночку поднимала бизнес с нуля. Теперь она владеет небольшой сетью кондитерских.
За Лидией, конечно, ухаживают мужчины, но она не видит среди них никого, с кем бы могла связать свою жизнь. Всю себя она посвящает своей дочери Тане (Анна Мареева).
Однако в последнее время Таня все чаще ссорится с матерью из-за своего мужа Артема (Эрик Абрамов), которого Лида считает бездельником и разгильдяем. Он тоже надеется открыть собственный бизнес, правда, не без финансовой помощи тещи.
Внезапно при обследовании у Лиды обнаружилась тяжелая болезнь. И как будто этого было мало, героиня сбивает на переходе пешехода – Николая (Алексей Фатеев). Пострадавший отделался легкими ссадинами, но полон решимости написать на Лидию заявление в полицию.

Лида решает обеспечить дочери будущее, продать имущество, бизнес... и больше не бороться за жизнь…
Релиз группа:
Сэмпл: http://multi-up.com/1194240
Качество видео: HDTVRip
Формат видео: AVI

Видео: 720x400 (16:9), 25.000 fps, XviD build 73, 1659 Kbps, 0.23 Bits/Pixel
Аудио: 48 kHz, AC3 Dolby Digital, 2 ch, 192 Kbps
General
Complete name : Downloads\Lidiya.2018.HDTVRip.Files-x.avi
Format : AVI
Format/Info : Audio Video Interleave
File size : 1.37 GiB
Duration : 1h 45mn
Overall bit rate : 1 861 Kbps
Writing application : VirtualDubMod 1.5.10.3 | www.virtualdub-fr.org || (build 2550/release)
Writing library : VirtualDubMod build 2550/release
Video #0
ID : 0
Format : MPEG-4 Visual
Format profile : Advanced [email protected]
Format settings, BVOP : 1
Format settings, QPel : No
Format settings, GMC : No warppoints
Format settings, Matrix : Custom
Codec ID : XVID
Codec ID/Hint : XviD
Duration : 1h 45mn
Bit rate : 1 659 Kbps
Width : 720 pixels
Height : 400 pixels
Display aspect ratio : 16:9
Frame rate : 25.000 fps
Color space : YUV
Chroma subsampling : 4:2:0
Bit depth : 8 bits
Scan type : Progressive
Compression mode : Lossy
Bits/(Pixel*Frame) : 0.230
Stream size : 1.22 GiB (89%)
Writing library : XviD 73
Audio #1
ID : 1
Format : AC-3
Format/Info : Audio Coding 3
Mode extension : CM (complete main)
Format settings, Endianness : Big
Codec ID : 2000
Duration : 1h 45mn
Bit rate mode : Constant
Bit rate : 192 Kbps
Channel(s) : 2 channels
Channel positions : Front: L R
Sampling rate : 48.0 KHz
Bit depth : 16 bits
Compression mode : Lossy
Stream size : 145 MiB (10%)
Alignment : Split accross interleaves
Interleave, duration : 40 ms (1.00 video frame)
Interleave, preload duration : 500 ms


Трекер:  [ 08-Апр-2018 20:54 ]

  

Скачать .torrent

Размер .torrent файла 14 KB


Размер: 1.37 GB
Хэш (hash) релиза: 3ca9ba374ba8c8e23491a46e1b4c261ee4930fb9
Подписка на обновления:

Торренты, похожие на Лидия скачать торрент

Форум Название Автор Размер S L Добавлен
Документальные фильмы и телепередачи ·· Маркиан Попов. Оставшийся свободным (Лидия Михайлова) [2017, исторический, SATRip] Galfimbul 591152578564 MB 0 0 1516225414

00:43

18-Янв-18

Документальные фильмы и телепередачи ·· "Печки-лавочки" Лидии Шукшиной (Наталья Билан) [2008, Документальный, SATRip] Galfimbul 436234240416 MB 0 0 1505297574

13:12

13-Сен-17

Мультфильмы до 2016 ·· Лебединое пёрышко (Лидия Сурикова) [1985, СССР, мультфильм, сказка, WEBRip] Galfimbul 8610757482 MB 0 0 1474633704

15:28

23-Сен-16

Зарубежные сериалы ·· Если бы мне стать облаком / Bir Bulut Olsam / Серии: 1-29 (29) (Улаш Инач / Ulaş Inaç) [2009, Турция, Мелодрама, драма, WEBRip] DVO (ATR), VO (Лидия Максимова) Galfimbul 2801195008026.09 GB 0 0 1464599984

12:19

30-Май-16

Зарубежные фильмы до 2016 ·· Прощай, Катя / Elveda Katya (Ахмет Сёнмез / Ahmet Sönmez) [2012, Турция, Драма, DVD9 (Custom)] VO (Лидия Максимова) + Sub Rus Galfimbul 69625466886.48 GB 0 0 1426832126

09:15

20-Мар-15

Документальные фильмы и телепередачи ·· Кумиры экрана. Лидия Смирнова (Руслан Заварзин) [2000, Личности и кумиры, DVB] Galfimbul 493689880471 MB 0 0 1425589510

00:05

6-Мар-15

Зарубежные сериалы ·· Курт Сеит и Шура (первый сезон) / Kurt Seyit ve Şura / Сезон: 1 / Серии: 1-13 (13) (Хилаль Сарал / Hilal Saral) [2014, Турция, Драма, мелодрама, военный, история, HDTVRip] DVO (Бислан Нагоев и Лидия Максимова) Galfimbul 1899822788217.69 GB 3 2 1424536728

19:38

21-Фев-15

Документальные фильмы и телепередачи ·· Фантазия на тему актрисы без амплуа. Лидия Сухаревская (Елена Никитан) [2009, Документальный, биография, история, культура, SATRip] Galfimbul 475256832453 MB 0 0 1424419497

11:04

20-Фев-15

Зарубежные фильмы до 2016 ·· Маленькая проблема Эйлюль / Bir Küçük Eylül Meselesi (Керем Дерен / Kerem Deren) [2014, Турция, драма, DVD9 (Custom)] DVO (Бислан Нагоев, Лидия Максимова) + Sub Eng Galfimbul 77421568007.21 GB 0 0 1414852723

17:38

1-Ноя-14

Зарубежные фильмы до 2016 ·· Только ты / Sadece Sen (Хакан Йонат / Hakan Yonat) [2014, Турция, драма, DVD9 (Custom)] DVO (shachter58, Лидия Максимова) + Sub Eng Galfimbul 58898227205.49 GB 0 0 1413270224

10:03

14-Окт-14

Российские фильмы до 2016 ·· Бабуся (Лидия Боброва) [2003, Россия, Франция, драма, DVDRip-AVC] Galfimbul 15690907681.46 GB 0 0 1393612439

21:33

28-Фев-14

Документальные фильмы и телепередачи ·· "Ноев ковчег" Степана Исаакяна [Культура 31.10.2013] (Лидия Запашная) [2008 г., Документальный, наш современник, SATRip] _N_ 340983808325 MB 0 0 1383467580

11:33

3-Ноя-13

Российские фильмы до 2016 ·· Лунные псы / Серии: 1-2 из 2 (Лидия Польщикова-Тумаева, Владимир Тумаев) [1994, Драма, VHSRip] Galfimbul 15551549441.45 GB 0 0 1382085878

11:44

18-Окт-13

Российские фильмы до 2016 ·· Лунные псы (Лидия Польщикова-Тумаева, Владимир Тумаев) [1995, драма, VHSRip] Galfimbul 71244185606.64 GB 0 0 1381912345

11:32

16-Окт-13

Документальные фильмы и телепередачи ·· Московские красавицы (8 серий из 8) << Надежда Пешкова (Тимоша) >> (Лидия Стрельникова) [2003, Документальный цикл, TVRip / DVB] Galfimbul 46801587384.36 GB 0 0 1381437365

23:36

10-Окт-13

Мультфильмы до 2016 ·· Пекка (Лидия Сурикова) [1985, Кукольный мультфильм, VHSRip] Galfimbul 158101504151 MB 0 0 1381264434

23:33

8-Окт-13

Документальные фильмы и телепередачи ·· Лидия Федосеева-Шукшина - "Мое женское счастье" (Ирина Голубева) [2013, Документальный, биографии, личности, SATRip] Galfimbul 703524864671 MB 0 0 1380445153

11:59

29-Сен-13

Документальные фильмы и телепередачи ·· Лидия Русланова (Надежда Писарева, Олег Ерышев) [1992, документальный, биография, DVB] Galfimbul 49903484004.65 GB 0 0 1379105811

23:56

13-Сен-13

Документальные фильмы и телепередачи ·· Шестое чувство [1974, Лидия Островская, научно-популярный, TVRip] L 183926784175 MB 0 0 1370702422

17:40

8-Июн-13

Еще никто не оставлял запись к записи скачать торрент Лидия . Будь первым!

!Обратная связь