Top Lagu Pop Indonesia | Лихорадка 2016 | Gold (2018) Hindi Pre-DVDRip x264 AAC by Full4movies

Скачать через торрент Владимир Винокур. Юбилейный вечер 2018.04.06 Фильм бесплатно в хорошем качестве torrent

Скачивайте на UnionPeer.org фильмы через торрент без регистрации. Новинки кино в хорошем качестве через торрент. На UnionPeer.org можно скачать через торрент фильмы 2014 и 2015 годов. Самые новые фильмы.

Скачать торрент Владимир Винокур. Юбилейный вечер 2018.04.06 бесплатно через .torrent фильм мультфильм сериал

Статистика раздачи
Размер:  16.11 GB   |    Зарегистрирован:  4 месяца 10 дней   |    .torrent скачан:  32 раза   |   
Раздают:  1  
   
загрузка...
 
Автор Сообщение

Galfimbul

avatar Galfimbul


Владимир Винокур. Юбилейный вечер 2018.04.06

Дата/Год выпуска: 2018
Страна: Россия
Жанр: Юмористическая передача
Продолжительность: 03:01:59
Перевод: Не требуется
Описание: Владимир Винокур, один из самых любимых артистов страны, юморист, пародист, актер, певец, радио- и телеведущий, педагог и продюсер, руководитель Государственного театра пародий отметит в этом году свой 70-летний юбилей на главной площадке страны!
В грандиозном праздничном концерте в Государственном Кремлевском Дворце примут участие: Иосиф Кобзон, Лев Лещенко, Александр Розенбаум, Лайма Вайкуле, Филипп Киркоров, Николай Басков, Александр Буйнов, Олег Газманов, Клара Новикова, Владимир Данилец и Владимир Моисеенко, Сергей Дроботенко, Геннадий Ветров, Юрий Гальцев и многие другие.

качество: HDTV 1080i
формат: TS
Видео: H264; 1920x1080 (16:9); 25.000 fps; ~11.9 Mb/s
Аудио: MPEG Audio Version 1 Layer 2, 48000Hz, 2 channels stereo 192 Кбит/сек
GeneralID : 1 (0x1)Complete name : C:\Владимир Винокур. Юбилейный вечер 2018.04.06.tsFormat : MPEG-TSFile size : 16.1 GiBDuration : 3 h 1 minOverall bit rate mode : VariableOverall bit rate : 12.7 Mb/s

VideoID : 2292 (0x8F4)Menu ID : 2291 (0x8F3)Format : AVCFormat/Info : Advanced Video CodecFormat profile : [email protected] settings : CABAC / 4 Ref FramesFormat settings, CABAC : YesFormat settings, RefFrames : 4 framesCodec ID : 27Duration : 3 h 1 minBit rate : 11.9 Mb/sWidth : 1 920 pixelsHeight : 1 080 pixelsDisplay aspect ratio : 16:9Frame rate : 25.000 FPSStandard : ComponentColor space : YUVChroma subsampling : 4:2:0Bit depth : 8 bitsScan type : InterlacedScan type, store method : Separated fieldsScan order : Top Field FirstBits/(Pixel*Frame) : 0.229Stream size : 15.1 GiB (94%)Color range : LimitedColor primaries : BT.709Transfer characteristics : BT.709Matrix coefficients : BT.709

AudioID : 2295 (0x8F7)Menu ID : 2291 (0x8F3)Format : MPEG AudioFormat version : Version 1Format profile : Layer 2Codec ID : 3Duration : 3 h 1 minBit rate mode : ConstantBit rate : 192 kb/sChannel(s) : 2 channelsSampling rate : 48.0 kHzCompression mode : LossyStream size : 250 MiB (2%)Language : Russian


Трекер:  [ 08-Апр-2018 17:12 ]

  

Скачать .torrent

Размер .torrent файла 81 KB


Размер: 16.11 GB
Хэш (hash) релиза: 0447e6b69f9374af102a7024a5ed9079c147161a
Подписка на обновления:

Торренты, похожие на Владимир Винокур. Юбилейный вечер 2018.04.06 скачать торрент

Форум Название Автор Размер S L Добавлен
Развлекательные телепередачи и шоу ·· Владимир Винокур. Юбилейный вечер 2018.04.06 [2018, Юмористическая передача, HDTVRip720p] Galfimbul 36769456803.42 GB 2 0 1524868943

01:42

28-Апр-18

Еще никто не оставлял запись к записи скачать торрент Владимир Винокур. Юбилейный вечер 2018.04.06 . Будь первым!

!Обратная связь