John Wick:Chapter 2 2017 HDRip 720p XviD E SUB AAC NBY | Sean Hobin | Leukemia Headaches Manual Guide Pdf

Скачать через торрент Персона 5 Persona 5 The Animation бесплатно Аниме Все серии на русском torrent

Статистика раздачи
Размер:  329 MB   |    Зарегистрирован:  3 месяца 8 дней   |    .torrent скачан:  27 раз   |   
Раздают:  1  
   
загрузка...
 
Автор Сообщение

Galfimbul

avatar Galfimbul


Персона 5 / Persona 5 The Animation

Страна: Япония
Год выпуска: 2018
Жанр: Приключения, фэнтези, сэнен, мистика
Тип: TV
Продолжительность: 1х ~24 мин.
Режиссер: Исихама Масаси
Студия:

Описание: стория разворачивается вокруг шестнадцатилетнего подростка, недавно переехавшего жить в Токио. Главный герой селится у друзей своих родителей, после чего знакомится со своими новыми одноклассниками — школьным хулиганом Рюджи Сакамото и замкнутой девушкой Анн Такамаки, а также с таинственным существом по имени Моргана, внешне очень похожем кошку. После некоторых событий товарищи образовывают группу «Призрачных похитителей сердец» для изучения сверхъестественного места под названием «Дворец», чтобы красть злые мысли и желания из сердец других людей.
Субтитры фансаб-альянса Firegorn Team
Перевод: Хитрый Лис
Редактирование: 8Bochan8
Оформление: Redgar-Firegorn
Качество: WEBRip
Тип релиза: Хардсаб
Формат видео: MKV
Наличие линковки: Нет
Релиз/Автор рипа: [HorribleSubs]
Видео: H.264 | 1280x720 | ~1770kbps | 23.976 fps | 8 bit
Аудио: ACC | 128 kbps | 44.1 kHz | 2 ch
Субтитры: ASS | В составе контейнера.
General
Unique ID : 239952956235091073207698814781343701519 (0xB485422441D479ABBF1E0D505E449A0F)
Complete name : D:\Раздачи\Persona 5 [720p]\[Firegorn Team] Persona 5 The Animation - 01 [720p].mkv
Format : Matroska
Format version : Version 4 / Version 2
File size : 329 MiB
Duration : 24 min 0 s
Overall bit rate : 1 914 kb/s
Encoded date : UTC 2018-04-08 12:31:58
Writing application : mkvmerge v8.8.0 ('Wind at my back') 64bit
Writing library : libebml v1.3.3 + libmatroska v1.4.4
Attachments : BrokgauzEfron_0.ttf / chinacat END 36_0.ttf / Comfortaa-Regular_0.ttf

Video
ID : 1
Format : AVC
Format/Info : Advanced Video Codec
Format profile : [email protected]
Format settings : CABAC / 6 Ref Frames
Format settings, CABAC : Yes
Format settings, ReFrames : 6 frames
Codec ID : V_MPEG4/ISO/AVC
Duration : 23 min 59 s
Bit rate : 1 776 kb/s
Width : 1 280 pixels
Height : 720 pixels
Display aspect ratio : 16:9
Frame rate mode : Variable
Frame rate : 23.976 (23976/1000) FPS
Color space : YUV
Chroma subsampling : 4:2:0
Bit depth : 8 bits
Scan type : Progressive
Bits/(Pixel*Frame) : 0.080
Stream size : 305 MiB (93%)
Writing library : x264 core 120 r2120 0c7dab9
Encoding settings : cabac=1 / ref=6 / deblock=1:1:1 / analyse=0x3:0x113 / me=umh / subme=8 / psy=1 / psy_rd=0.40:0.00 / mixed_ref=1 / me_range=16 / chroma_me=1 / trellis=1 / 8x8dct=1 / cqm=0 / deadzone=21,11 / fast_pskip=1 / chroma_qp_offset=-2 / threads=4 / sliced_threads=0 / nr=0 / decimate=1 / interlaced=0 / bluray_compat=0 / constrained_intra=0 / bframes=3 / b_pyramid=2 / b_adapt=2 / b_bias=0 / direct=3 / weightb=1 / open_gop=0 / weightp=2 / keyint=250 / keyint_min=23 / scenecut=40 / intra_refresh=0 / rc_lookahead=50 / rc=2pass / mbtree=1 / bitrate=1776 / ratetol=1.0 / qcomp=0.60 / qpmin=0 / qpmax=69 / qpstep=4 / cplxblur=20.0 / qblur=0.5 / vbv_maxrate=3552 / vbv_bufsize=8880 / nal_hrd=none / ip_ratio=1.40 / aq=1:0.60
Default : Yes
Forced : No

Audio
ID : 2
Format : AAC
Format/Info : Advanced Audio Codec
Format profile : LC
Codec ID : A_AAC-2
Duration : 24 min 0 s
Bit rate : 128 kb/s
Channel(s) : 2 channels
Channel positions : Front: L R
Sampling rate : 44.1 kHz
Frame rate : 43.066 FPS (1024 SPF)
Compression mode : Lossy
Stream size : 22.0 MiB (7%)
Language : Japanese
Default : Yes
Forced : No

Text
ID : 3
Format : ASS
Codec ID : S_TEXT/ASS
Codec ID/Info : Advanced Sub Station Alpha
Duration : 23 min 56 s
Bit rate : 178 b/s
Count of elements : 341
Compression mode : Lossless
Stream size : 31.2 KiB (0%)
Title : [Firegorn Team]
Language : Russian
Default : Yes
Forced : No
#1 Я есть ты, ты есть я.
Не забываем нажимать на кнопку "сказать спасибо" тем самым выражая свою благодарность!!!
Раздавать буду преимущественно с 7:00 до 00:00

Трекер:  [ 08-Апр-2018 16:01 ]

  

Скачать .torrent

Размер .torrent файла 13 KB


Размер: 329 MB
Хэш (hash) релиза: 39bd1e8eaef9564587b9932145b84418b46b581e
Подписка на обновления:

Еще никто не оставлял запись к записи скачать торрент Персона 5 Persona 5 The Animation . Будь первым!

!Обратная связь