Freedom (1) season 04 episode 16
Mot08rcyclist.USA.May.June.2018

Скачать через торрент Новая Милашка Хани New Cutey Honey бесплатно Аниме Все серии на русском torrent

Статистика раздачи
Размер:  1.81 GB   |    Зарегистрирован:  13 дней   |    .torrent скачан:  34 раза   |   
Раздают:  1  
   
загрузка...
 
Автор Сообщение

Galfimbul

avatar Galfimbul


Новая Милашка Хани / New Cutey Honey (新・キューティーハニー)

Год выпуска: 1994
Страна: Япония
Жанр: Махо-сёдзё, Эротика, Приключения, Комедия
Продолжительность: 8 эп., 30 мин
Перевод: Субтитры
Русские субтитры: есть
Хардсаб: есть, неотключаемый Испанский.

Режиссер: Нагаока Ясутика

Описание: С появлением зла в лице Dolmeck, город Cosplay в опасности. Командуя армией монстров, он планирует разрушить все. Только один человек может остановить это: Милашка Хани. После того, как она пробуждается, она становится мультитрансформационным андроидом Милашкой Хани. Однако, для Хани становится неожиданностью, когда она сталкивается со старым врагом из прошлого: Panther Zora.

(Описание взято с anidb, переведено промтом и подредактированно, не пинайте сильно, просто некогда.)

Доп. информация: Оригинально раздача от FCF. В видео встроен Испанский хардсаб, т.к. другово варианта просто не достать. К тому же этот вариант был получен через большие мучения, т.к. оригинальная раздача была не полной, четыре серии остались без сида, но путем долгих скитаний были найдены на мегааплоаде, загружены, и даже была оказана помощь остальным качающим, которые попали в ту ситуацию, когда не хватало 95 метров.

Русские сабы взяты с ФанСабс.ру, чуть подправлены по таймингам. Сам ещё не смотрел полностью, так что не могу сказать на склоько все совпадет.

Качество: DVDRip
Формат: AVI
Видео кодек: DivX
Аудио кодек: MP3
Видео: 696x472 29.97fps 1129Kbps
Аудио: 48000Hz stereo 121Kbps
General
Complete name : D:\Down\Cutey Honey OVA\Cutey Honey OVA 01.avi
Format : AVI
Format/Info : Audio Video Interleave
File size : 231 MiB
Duration : 25mn 11s
Overall bit rate mode : Variable
Overall bit rate : 1 283 Kbps
Writing application : Nandub v1.0rc2
Writing library : Nandub build 1852/release

Video
ID : 0
Format : MPEG-4 Visual
Format profile : Advanced [email protected]
Format settings, BVOP : 2
Format settings, QPel : Yes
Format settings, GMC : No warppoints
Format settings, Matrix : Default (H.263)
Muxing mode : Packed bitstream
Codec ID : XVID
Codec ID/Hint : XviD
Duration : 25mn 11s
Bit rate : 1 148 Kbps
Width : 720 pixels
Height : 480 pixels
Display aspect ratio : 3:2
Frame rate : 29.970 fps
Standard : NTSC
Color space : YUV
Chroma subsampling : 4:2:0
Bit depth : 8 bits
Scan type : Progressive
Compression mode : Lossy
Bits/(Pixel*Frame) : 0.111
Stream size : 207 MiB (89%)
Writing library : XviD 1.0.3 (UTC 2004-12-20)

Audio
ID : 1
Format : MPEG Audio
Format version : Version 1
Format profile : Layer 3
Mode : Dual mono
Codec ID : 55
Codec ID/Hint : MP3
Duration : 25mn 11s
Bit rate mode : Variable
Bit rate : 121 Kbps
Nominal bit rate : 128 Kbps
Channel(s) : 2 channels
Sampling rate : 48.0 KHz
Compression mode : Lossy
Stream size : 21.8 MiB (9%)
Alignment : Aligned on interleaves
Interleave, duration : 24 ms (0.72 video frame)
Interleave, preload duration : 145 ms
Writing library : LAME3.96r
Encoding settings : -m d -V 4 -q 3 -lowpass 17.5 --abr 128


Трекер:  [ 08-Апр-2018 10:30 ]

  

Скачать .torrent

Размер .torrent файла 38 KB


Размер: 1.81 GB
Хэш (hash) релиза: 534fcc5e64ff03fff2c283103d811c4bed346160
Подписка на обновления:

Еще никто не оставлял запись к записи скачать торрент Новая Милашка Хани New Cutey Honey . Будь первым!

!Обратная связь