DJSunnyStef | Super Troopers 2 +When an international border dispute arises between the U.S. and Canada, the Super Troopers- Mac, Thorny, Foster, Rabbit and Farva, are called in to set up a new Highway Patrol station in the disputed area. | Johannes Brahms, Ludwig van Beethoven, Richard Wagner - The Finest German Classical (2018)

Скачать через торрент Со дна вершины Фильм бесплатно в хорошем качестве torrent

Скачивайте на UnionPeer.org фильмы через торрент без регистрации. Новинки кино в хорошем качестве через торрент. На UnionPeer.org можно скачать через торрент фильмы 2014 и 2015 годов. Самые новые фильмы.

Скачать торрент Со дна вершины бесплатно через .torrent фильм мультфильм сериал

Статистика раздачи
Размер:  746 MB   |    Зарегистрирован:  3 месяца 13 дней   |    .torrent скачан:  40 раз   |   
Раздают:  1  
   
загрузка...
 
Автор Сообщение

Galfimbul

avatar Galfimbul


Со дна вершины

Страна: Россия
Жанр: драма, спорт
Год выпуска: 2017
Продолжительность: 01:51:15
Субтитры: нет
Режиссер: Яна Поляруш, Тамара Цоцория, Константин Кутуев
В ролях: Павел Шевандо, Владимир Вдовиченков, Ксения Кузнецова, Сергей Никоненко, Константин Белошапка, Наталья Бергер, Ирина Розанова, Сергей Пускепалис, Нонна Гришаева, Никита Салопин
Описание: Алексей Царёв — семнадцатилетний лидер школы и подающий большие надежды чемпион юношеской сборной по горным лыжам. У Алексея есть любимая девушка Лина и друг Костя, его соперник и в спорте, и в любви. Алексей — первый во всём. Он уверен в себе, не умеет и не желает проигрывать. Но всё меняется в один миг. После трагической случайности, которая происходит с Алексеем по вине Кости, их дружбе предстоит пройти проверку на прочность. Но сила духа, добро и любовь помогут перенести все испытания судьбы и приведут каждого к своей победе.
Качество видео: WEB-DLRip
Формат видео: AVI

Видео: 688x368 (1.87:1), 23.976 fps, XviD build 73 ~800 kbps avg, 0.13 bit/pixel
Аудио: 48 kHz, MPEG Layer 3, 2 ch, ~128.00 kbps avg
Сэмпл
Format                      : AVI
Format/Info                 : Audio Video Interleave
File size                   : 746 MiB
Duration                    : 1 h 51 min
Overall bit rate            : 937 kb/s
Writing application         : VirtualDubMod 1.5.10.3 | www.virtualdub-fr.org || (build 2550/release)
Writing library             : VirtualDubMod build 2550/release

Video
ID                          : 0
Format                      : MPEG-4 Visual
Format profile              : Advanced [email protected]
Format settings             : BVOP1
Format settings, BVOP       : 1
Format settings, QPel       : No
Format settings, GMC        : No warppoints
Format settings, Matrix     : Default (H.263)
Codec ID                    : XVID
Codec ID/Hint               : XviD
Duration                    : 1 h 51 min
Bit rate                    : 800 kb/s
Width                       : 688 pixels
Height                      : 368 pixels
Display aspect ratio        : 1.85:1
Frame rate                  : 23.976 (24000/1001) FPS
Color space                 : YUV
Chroma subsampling          : 4:2:0
Bit depth                   : 8 bits
Scan type                   : Progressive
Compression mode            : Lossy
Bits/(Pixel*Frame)          : 0.132
Stream size                 : 636 MiB (85%)
Writing library             : XviD 73

Audio
ID                          : 1
Format                      : MPEG Audio
Format version              : Version 1
Format profile              : Layer 3
Codec ID                    : 55
Codec ID/Hint               : MP3
Duration                    : 1 h 51 min
Bit rate mode               : Constant
Bit rate                    : 128 kb/s
Channel(s)                  : 2 channels
Sampling rate               : 48.0 kHz
Frame rate                  : 41.667 FPS (1152 SPF)
Compression mode            : Lossy
Stream size                 : 102 MiB (14%)
Alignment                   : Aligned on interleaves
Interleave, duration        : 42  ms (1.00 video frame)
Interleave, preload duratio : 504  ms
Writing library             : LAME3.99r
Encoding settings           : -m s -V 4 -q 2 -lowpass 17 -b 128


Трекер:  [ 08-Апр-2018 06:54 ]

  

Скачать .torrent

Размер .torrent файла 15 KB


Размер: 746 MB
Хэш (hash) релиза: b5e9969a5796609ab0fe54fdaf3d949eae150623
Подписка на обновления:

Торренты, похожие на Со дна вершины скачать торрент

Форум Название Автор Размер S L Добавлен
Российские фильмы до 2016 ·· Со дна вершины (Яна Поляруш, Тамара Цоцория, Константин Кутуев) [2017, Россия, драма, спорт, WEB-DL 1080p] Original Rus Galfimbul 46721867074.35 GB 0 0 1522938665

17:31

5-Апр-18

Российские фильмы 2016-2018 (Новинки русского кино) ·· Со дна вершины (Яна Поляруш, Тамара Цоцория, Константин Кутуев) [2018 г., драма, спорт, WEB-DL 720p] | iTunes Galfimbul 37151127523.46 GB 0 0 1522646465

08:21

2-Апр-18

Российские фильмы 2016-2018 (Новинки русского кино) ·· Со дна вершины (Яна Поляруш, Тамара Цоцория, Константин Кутуев) [2018 г., драма, спорт, WEB-DLRip] | iTunes Galfimbul 22053765122.05 GB 0 0 1522646463

08:21

2-Апр-18

Российские фильмы 2016-2018 (Новинки русского кино) ·· Со дна вершины (Яна Поляруш, Тамара Цоцория, Константин Кутуев) [2017, Россия, драма, спорт, WEB-DL 1080p] iTunes Galfimbul 46721867074.35 GB 0 0 1522618245

00:30

2-Апр-18

Российские фильмы 2016-2018 (Новинки русского кино) ·· Со дна вершины (Яна Поляруш, Тамара Цоцория, Константин Кутуев) [2017, Россия, драма, спорт, WEB-DLRip] iTunes Galfimbul 15679303681.46 GB 0 0 1522617015

00:10

2-Апр-18

Еще никто не оставлял запись к записи скачать торрент Со дна вершины . Будь первым!

!Обратная связь