Kacey Musgraves – A Very Kacey Christmas (2016)
Мультфильмы

Скачать через торрент Мегало Бокс Megalo Box бесплатно Аниме Все серии на русском torrent

Статистика раздачи
Размер:  333 MB   |    Зарегистрирован:  13 дней   |    .torrent скачан:  22 раза   |   
Раздают:  1  
   
загрузка...
 
Автор Сообщение

Galfimbul

avatar Galfimbul


Мегало Бокс / Megalo Box

Страна: Япония
Год выпуска: 2018
Жанр: Cпорт, повседневность, драма
Тип: TV
Продолжительность: 12 эп ~ 24 мин.
Режиссер: Морияма Ё
Студия: TMS

Описание: Что такое бокс в нашем привычном понимании? Это наиболее культурный спорт из всех видов спорта, основанных на драке. Двое человек стоят на ринге и кулаками, облачёнными в специальные перчатки, наносят друг другу удары, пока один из них не одержит победу. Таким бокс видели наши родители, на сегодняшний день ничего не изменилось, и мы считаем, что и дальше всё будет точно так же. Но что если людям, живущим в мире стремительно развивающихся технологий, покажется, что одних перчаток недостаточно? Может быть применить эти технологии и усовершенствовать данный вид спорта? Так в ближайшем будущем и родился мегалобокс - единоборство, в котором боксёры совмещают свои навыки, полученные путём долгих и изнурительных тренировок, с расширенными возможностями протезного экзоскелета. История расскажет нам о парне по прозвищу Джейди, который решает покорить подпольный мир мегалобокса. Джейди каждый раз ставит свою жизнь на кон, бросая вызов судьбе. И однажды судьба сжалилась над ним, и он получает спонсора и шанс на хорошее будущее.
Субтитры фансаб-альянса Firegorn Team

Перевод, оформление: Redgar-Firegorn
Редактирование: Igorek1102
Качество: WEBRip
Тип релиза: Без хардсаба
Формат видео: MKV
Наличие линковки: Нет
Видео: H.264 | 1280x720 | ~ 1776 kbps | 23.976 fps | 8 bit
Аудио: ACC | 128 kbps | 44.1 kHz | 2 ch
Субтитры: ASS | Вшитые
General
Unique ID : 255049016609773289018084085058924368664 (0xBFE0A761E56F9959B6BB56D588C2D318)
Complete name : D:\Раздачи\Megalo Box [720p]\[Firegorn Team] Megalo Box - 01 [720p].mkv
Format : Matroska
Format version : Version 4 / Version 2
File size : 333 MiB
Duration : 24 min 25 s
Overall bit rate : 1 906 kb/s
Encoded date : UTC 2018-04-07 10:39:05
Writing application : mkvmerge v8.8.0 ('Wind at my back') 64bit
Writing library : libebml v1.3.3 + libmatroska v1.4.4
Attachments : 11610_0.ttf

Video
ID : 1
Format : AVC
Format/Info : Advanced Video Codec
Format profile : [email protected]
Format settings : CABAC / 6 Ref Frames
Format settings, CABAC : Yes
Format settings, ReFrames : 6 frames
Codec ID : V_MPEG4/ISO/AVC
Duration : 24 min 25 s
Bit rate : 1 776 kb/s
Width : 1 280 pixels
Height : 720 pixels
Display aspect ratio : 16:9
Frame rate mode : Variable
Frame rate : 23.976 (23976/1000) FPS
Color space : YUV
Chroma subsampling : 4:2:0
Bit depth : 8 bits
Scan type : Progressive
Bits/(Pixel*Frame) : 0.080
Stream size : 310 MiB (93%)
Writing library : x264 core 120 r2120 0c7dab9
Encoding settings : cabac=1 / ref=6 / deblock=1:1:1 / analyse=0x3:0x113 / me=umh / subme=8 / psy=1 / psy_rd=0.40:0.00 / mixed_ref=1 / me_range=16 / chroma_me=1 / trellis=1 / 8x8dct=1 / cqm=0 / deadzone=21,11 / fast_pskip=1 / chroma_qp_offset=-2 / threads=4 / sliced_threads=0 / nr=0 / decimate=1 / interlaced=0 / bluray_compat=0 / constrained_intra=0 / bframes=3 / b_pyramid=2 / b_adapt=2 / b_bias=0 / direct=3 / weightb=1 / open_gop=0 / weightp=2 / keyint=250 / keyint_min=23 / scenecut=40 / intra_refresh=0 / rc_lookahead=50 / rc=2pass / mbtree=1 / bitrate=1776 / ratetol=1.0 / qcomp=0.60 / qpmin=0 / qpmax=69 / qpstep=4 / cplxblur=20.0 / qblur=0.5 / vbv_maxrate=3552 / vbv_bufsize=8880 / nal_hrd=none / ip_ratio=1.40 / aq=1:0.60
Default : Yes
Forced : No

Audio
ID : 2
Format : AAC
Format/Info : Advanced Audio Codec
Format profile : LC
Codec ID : A_AAC-2
Duration : 24 min 25 s
Bit rate : 128 kb/s
Channel(s) : 2 channels
Channel positions : Front: L R
Sampling rate : 44.1 kHz
Frame rate : 43.066 FPS (1024 SPF)
Compression mode : Lossy
Stream size : 22.4 MiB (7%)
Language : Japanese
Default : Yes
Forced : No

Text
ID : 3
Format : ASS
Codec ID : S_TEXT/ASS
Codec ID/Info : Advanced Sub Station Alpha
Duration : 23 min 57 s
Bit rate : 130 b/s
Count of elements : 284
Compression mode : Lossless
Stream size : 23.0 KiB (0%)
Title : [Firegorn Team]
Language : Russian
Default : Yes
Forced : No
Раунд 1: "Продаться или умереть?"
Не забываем нажимать на кнопку "сказать спасибо" тем самым выражая свою благодарность!!!
Раздавать буду преимущественно с 7:00 до 00:00

Трекер:  [ 07-Апр-2018 14:30 ]

  

Скачать .torrent

Размер .torrent файла 13 KB


Размер: 333 MB
Хэш (hash) релиза: 8e578fcea578b9c975dfd8e2147261090d210c07
Подписка на обновления:

Еще никто не оставлял запись к записи скачать торрент Мегало Бокс Megalo Box . Будь первым!

!Обратная связь