СКАЧАТЬ: / подробнее
Troy: Fall of a City

Скачать через торрент Судьба. Ночь Прибытия Fate. Stay Night бесплатно Аниме Все серии на русском torrent

Статистика раздачи
Размер:  8.47 GB   |    Зарегистрирован:  13 дней   |    .torrent скачан:  13 раз   |   
Раздают:  1  
   
загрузка...
 
Автор Сообщение

Galfimbul

avatar Galfimbul


Судьба. Ночь Прибытия / Fate. Stay Night
Год выпуска: 2006
Страна: Япония
Жанр: приключения, фэнтези
Продолжительность: 24 эп. по 25 мин.
Перевод: (одноголосый) Cuba77
Русские субтитры: есть (отключаемые)
Автор перевода: Cloud
Хардсаб: нет

Режиссер: Yuji Yamaguchi
Автор оригинала: Kinoko Nasu
Сценарий: Takashi Takeuchi, Takashi Yamana, Tetsuya Yanagisawa, Yuji Yamaguchi
Композитор: Kenji Kawai

Описание: Ученик старшей школы, Эмия Широ, становится невольным участником так называемой «войны Святого Грааля», время от времени проходящей в японском городе Фуюки. Это борьба семерых магов за обладание легендарным артефактом — Святым Граалем, который исполнит любое желание победителя и, таким образом, изменит его судьбу. Каждый маг с момента своего начала участия в войне призывает слугу — одну из великих героических душ прошлого или будущего — сражающегося на стороне своего хозяина. Есть семь слуг, все они принадлежат к разным боевым классам: мечник (Сэйбер), лучник (Арчер), копейщик (Лансер), всадник (Райдер), берсеркер, убийца (Ассасин) и маг (Кастер). Битва ведется до тех пор, пока не останется одна пара мастера и слуги. Эмия Широ против собственной воли призывает мечницу — слугу, поставившую себе цель добраться до Грааля любым путём. Однако, он не желает участвовать в битве, так как в прошлой войне потерял всех своих родных. Эмии начинает помогать Тосака Рин — сильный маг, которая учится в той же школе, что и Широ. Но правила войны Святого Грааля указывают на то, что рано или поздно им предстоит сразиться между собой, а наиболее возможный исход для проигравшего — смерть.

Качество: DVDRip
Формат: MKV
Видео кодек: AVC
Аудио кодек: MP3, AC3
Видео: AVC, 720x480 (16:9), 29.970 fps, 1 934 Kbps (0.148 bit/pixel)
Аудио #1: MP3, 48.0 KHz, 2 ch, 128 Kbps, CBR (Russian)
Аудио #2: AC-3 Dolby Digital, 48.0 KHz, 2 ch, 192 Kbps, CBR (Japanese)
Аудио #3: AC-3 Dolby Digital, 48.0 KHz, 2 ch, 192 Kbps, CBR (English)
01. The Day It Began
02. Night of Fate
03. Raising The Curtain
04. The Strongest Enemy
05. The Two Magus (Part One)
06. The Two Magus (Part Two)
07. Despicable Acts
08. Dissonant Melody
09. Elegance In The Moonlight
10. The Calm Interlude
11. Fresh Blood Temple (Bloodfort Andromeda)
12. Splitting The Sky
13. Winter Castle
15. The Twelve Trials
16. The Sword That Brings The Promised Victory
17. Mark of the Witch
18. Decisive Battle
19. The Golden King
20. Distant Trace of a Dream
21. Separation of Heaven and Earth and the Creation of a Star
22. Result of a Wish
23. Holy Grail
24. Avalon
GeneralUnique ID : 196581508351204758076842289340336446546 (0x93E438AA0AD3AD5D99FBD28F844A1C52)Complete name : ***\Fate._Stay_Night_[01_of_24]_[ru_jp_en]_[Cuba77_&_AnimeReactor_Ru].mkvFormat : MatroskaFormat version : Version 1File size : 362 MiBDuration : 24mn 12sOverall bit rate : 2 089 KbpsMovie name : Fate/Stay Night - 01 - The First DayEncoded date : UTC 2008-04-17 19:11:23Writing application : mkvmerge v2.1.0 ('Another Place To Fall') built on Aug 19 2007 13:40:07Writing library : libebml v0.7.7 + libmatroska v0.8.1

VideoID : 1Format : AVCFormat/Info : Advanced Video CodecFormat profile : [email protected] settings, CABAC : YesFormat settings, ReFrames : 11 framesFormat settings, GOP : N=1Codec ID : V_MPEG4/ISO/AVCBit rate : 1 536 KbpsNominal bit rate : 1 930 KbpsWidth : 720 pixelsHeight : 480 pixelsDisplay aspect ratio : 16:9Original display aspect rat : 3:2Frame rate mode : VariableOriginal frame rate : 29.970 fpsColor space : YUVChroma subsampling : 4:2:0Bit depth : 8 bitsScan type : ProgressiveBits/(Pixel*Frame) : 0.186Writing library : x264 core 54 svn-614MEncoding settings : cabac=1 / ref=8 / deblock=1:-3:-3 / analyse=0x3:0x133 / me=umh / subme=6 / brdo=1 / mixed_ref=1 / me_range=16 / chroma_me=1 / trellis=2 / 8x8dct=1 / cqm=2 / deadzone=21,11 / chroma_qp_offset=0 / threads=2 / nr=0 / decimate=1 / mbaff=0 / bframes=3 / b_pyramid=1 / b_adapt=1 / b_bias=0 / direct=3 / wpredb=1 / bime=1 / keyint=250 / keyint_min=25 / scenecut=40(pre) / rc=2pass / bitrate=1930 / ratetol=1.0 / rceq='blurCplx^(1-qComp)' / qcomp=0.60 / qpmin=10 / qpmax=51 / qpstep=4 / cplxblur=20.0 / qblur=0.5 / ip_ratio=1.40 / pb_ratio=1.30Default : YesForced : No

Audio #1ID : 2Format : MPEG AudioFormat version : Version 1Format profile : Layer 3Mode : Joint stereoMode extension : MS StereoCodec ID : A_MPEG/L3Codec ID/Hint : MP3Duration : 24mn 12sBit rate mode : ConstantBit rate : 128 KbpsChannel(s) : 2 channelsSampling rate : 48.0 KHzCompression mode : LossyStream size : 22.2 MiB (6%)Language : RussianDefault : YesForced : No

Audio #2ID : 3Format : AC-3Format/Info : Audio Coding 3Mode extension : CM (complete main)Format settings, Endianness : BigCodec ID : A_AC3Duration : 24mn 12sBit rate mode : ConstantBit rate : 192 KbpsChannel(s) : 2 channelsChannel positions : Front: L RSampling rate : 48.0 KHzCompression mode : LossyStream size : 33.3 MiB (9%)Language : JapaneseDefault : NoForced : No

Audio #3ID : 4Format : AC-3Format/Info : Audio Coding 3Mode extension : CM (complete main)Format settings, Endianness : BigCodec ID : A_AC3Duration : 24mn 12sBit rate mode : ConstantBit rate : 192 KbpsChannel(s) : 2 channelsChannel positions : Front: L RSampling rate : 48.0 KHzCompression mode : LossyStream size : 33.3 MiB (9%)Language : EnglishDefault : NoForced : No

TextID : 5Format : ASSCodec ID : S_TEXT/ASSCodec ID/Info : Advanced Sub Station AlphaCompression mode : LosslessLanguage : RussianDefault : YesForced : No
OST's (mp3)
OST's (lossless)
Wallpapers
Video for PPC
Game (18+)
Game v2.0 (18+)
Game for PS2 (15+)


Трекер:  [ 07-Апр-2018 14:30 ]

  

Скачать .torrent

Размер .torrent файла 45 KB


Размер: 8.47 GB
Хэш (hash) релиза: a87b1a0bae60bc5ec2b7f2a3d650af69e71daa1b
Подписка на обновления:

Торренты, похожие на Судьба. Ночь Прибытия Fate. Stay Night скачать торрент

Форум Название Автор Размер S L Добавлен
Аниме | Rips ·· Судьба. Ночь Прибытия / Fate. Stay Night (Yuji Yamaguchi)[RAW][RUS,JAP,ENG+SUB](24 из 24) [2006 г., приключения, фэнтези, DVDRip] L 90970161628.47 GB 0 0 1364468063

13:54

28-Мар-13

Аниме | HD Rips ·· Судьба - Ночь Прибытия / Fate - Stay Night [TV] [01-24 из 24] [RUS(int), JAP+SUB] [2006, приключения, фэнтези, романтика, драма, BDRip] [1080p][любительская] L 2017795028718.79 GB 0 0 1316959604

17:06

25-Сен-11

Еще никто не оставлял запись к записи скачать торрент Судьба. Ночь Прибытия Fate. Stay Night . Будь первым!

!Обратная связь