Tiger and Bunny
Chandrashekhar

Скачать порно через торрент Latin Beauties Латинские Красоты UnionPeer.org бесплатно онлайн HD качество

Скачать новое порно 2015, 2014 новинки через торрент UnionPeer.org

Порно торрент бесплатно ЮнионПир.орг

Статистика раздачи
Размер:  3.22 GB   |    Зарегистрирован:  13 дней   |    .torrent скачан:  123 раза   |   
Раздают:  1  
   
загрузка...
 
Автор Сообщение

Galfimbul

avatar Galfimbul




Год производства: 2003 г.
Страна: USA
Жанр: Softcore
Продолжительность: 01:01:56
Язык: English

Producer: James Hoffer
Студия: JMH Productions, Inc.

В ролях:
Linda O''neil
Angela Taylor
Nina
Yvonne
Jennifer
Amy
Carla
Savannah

Описание: The Salsa runs hot...

These Latinas show you the true meaning of La Vida Loca!

Доп.материал: Бонусная игра Boob Game позволяющая проверить ваше умение отличать настоящие сиськи от силиконовых.

Меню: Есть.

Качество: DVD5
Формат: DVD Video
Видео кодек: MPEG2
Аудио кодек: AC3
Видео: MPEG2 Video NTSC 720x480 (4:3) 29.97fps
Аудио: Dolby AC3 48000Hz stereo 224kbps
General
Format : MPEG-PS
File size : 3.18 GiB
Duration : 1 h 1 min
Overall bit rate mode : Variable
Overall bit rate : 7 360 kb/s

Video
ID : 224 (0xE0)
Format : MPEG Video
Format version : Version 2
Format profile : [email protected]
Format settings, BVOP : Yes
Format settings, Matrix : Custom
Format settings, GOP : M=3, N=15
Format settings, picture struc : Frame
Duration : 1 h 1 min
Bit rate mode : Variable
Bit rate : 7 000 kb/s
Width : 720 pixels
Height : 480 pixels
Display aspect ratio : 4:3
Frame rate : 29.970 (30000/1001) FPS
Standard : NTSC
Color space : YUV
Chroma subsampling : 4:2:0
Bit depth : 8 bits
Scan type : Interlaced
Scan order : Top Field First
Compression mode : Lossy
Bits/(Pixel*Frame) : 0.676
Time code of first frame : 00:00:00;00
Time code source : Group of pictures header
GOP, Open/Closed : Open
GOP, Open/Closed of first fram : Closed
Stream size : 3.02 GiB (95%)

Audio
ID : 189 (0xBD)-128 (0x80)
Format : AC-3
Format/Info : Audio Coding 3
Format settings, Endianness : Big
Muxing mode : DVD-Video
Duration : 1 h 1 min
Bit rate mode : Constant
Bit rate : 224 kb/s
Channel(s) : 2 channels
Channel positions : Front: L R
Sampling rate : 48.0 kHz
Frame rate : 31.250 FPS (1536 SPF)
Bit depth : 16 bits
Compression mode : Lossy
Stream size : 99.2 MiB (3%)
Service kind : Complete Main

Menu


Трекер:  [ 07-Апр-2018 14:10 ]

  

Скачать .torrent

Размер .torrent файла 33 KB


Размер: 3.22 GB
Хэш (hash) релиза: 162a6fbadf2d621425a20bae115a3f8c9b6eb83c

Торренты, похожие на Latin Beauties Латинские Красоты скачать торрент

Форум Название Автор Размер S L Добавлен
Эротика, документальное и обучающее ·· Latin Beauties 2 / Латинские Красоты 2 (James Hoffer, BCI) [2003 г., Softcore, DVD5] Galfimbul 35160657853.27 GB 0 0 1523100748

14:32

7-Апр-18

Еще никто не оставлял запись к записи скачать торрент Latin Beauties Латинские Красоты . Будь первым!

!Обратная связь