Cuban Latin Project
(2017) DVDRip Pitch Perfect 3

Скачать порно через торрент Electric Blue, Vol. 6 - Boobmania UnionPeer.org бесплатно онлайн HD качество

Скачать новое порно 2015, 2014 новинки через торрент UnionPeer.org

Порно торрент бесплатно ЮнионПир.орг

Статистика раздачи
Размер:  3.07 GB   |    Зарегистрирован:  17 дней   |    .torrent скачан:  201 раз   |   
Раздают:  1  
   
загрузка...
 
Автор Сообщение

Galfimbul

avatar Galfimbul


Electric Blue, Vol. 6 - Boobmania



Год производства: 1998 г.
Страна: USA
Жанр: Big Boobs
Продолжительность: 00:52:35
Язык: English

Режиссер: Adam Cole
Студия: Image Entertainment

В ролях: Michelle Bauer, Vanessa del Rio, Suze Randall, Sulka

Описание: Featured are 7 big boob queens that are way out in front of the rest of the field. This is an all-star cast of the biggest and the best of the big breasts. From the moment the magnificent Marilyn Melons reveals her unbeatable bust until Karen Wing gets ''em off, you''ll be wide-eyed and breathless. If big breasts are what get you hot, "Boobmania" is just for you.

Меню: Есть. Только меню эпизодов.

Качество: DVD5
Формат: DVD Video
Видео кодек: MPEG2
Аудио кодек: AC3
Видео: MPEG2 Video NTSC 720x480 (4:3) 29.97fps
Аудио: Dolby AC3 48000Hz mono 192kbps
General
Format : MPEG-PS
File size : 3.05 GiB
Duration : 52 min 35 s
Overall bit rate mode : Variable
Overall bit rate : 8 308 kb/s

Video
ID : 224 (0xE0)
Format : MPEG Video
Format version : Version 2
Format profile : [email protected]
Format settings, BVOP : Yes
Format settings, Matrix : Custom
Format settings, GOP : M=3, N=15
Format settings, picture struc : Frame
Duration : 52 min 35 s
Bit rate mode : Variable
Bit rate : 7 950 kb/s
Width : 720 pixels
Height : 480 pixels
Display aspect ratio : 4:3
Frame rate : 29.970 (30000/1001) FPS
Standard : NTSC
Color space : YUV
Chroma subsampling : 4:2:0
Bit depth : 8 bits
Scan type : Interlaced
Scan order : Top Field First
Compression mode : Lossy
Bits/(Pixel*Frame) : 0.768
Time code of first frame : 00:59:58:00
Time code source : Group of pictures header
GOP, Open/Closed : Open
GOP, Open/Closed of first fram : Closed
Stream size : 2.92 GiB (96%)

Audio
ID : 189 (0xBD)-128 (0x80)
Format : AC-3
Format/Info : Audio Coding 3
Format settings, Endianness : Big
Muxing mode : DVD-Video
Duration : 52 min 35 s
Bit rate mode : Constant
Bit rate : 192 kb/s
Channel(s) : 1 channel
Channel positions : Front: C
Sampling rate : 48.0 kHz
Frame rate : 31.250 FPS (1536 SPF)
Bit depth : 16 bits
Compression mode : Lossy
Stream size : 72.2 MiB (2%)
Service kind : Complete Main

Menu


Трекер:  [ 07-Апр-2018 13:30 ]

  

Скачать .torrent

Размер .torrent файла 32 KB


Размер: 3.07 GB
Хэш (hash) релиза: 5c25672b5049df7d74357ea77c7ae399fe2f69c9

Еще никто не оставлял запись к записи скачать торрент Electric Blue, Vol. 6 - Boobmania . Будь первым!

!Обратная связь