Game of Thrones Season 3 S03 Complete (1080p Bluray x265 HEVC AAC 5.1 Joy)[UTR]
Una Vez Mas

Скачать через торрент Купи меня Фильм бесплатно в хорошем качестве torrent

Скачивайте на UnionPeer.org фильмы через торрент без регистрации. Новинки кино в хорошем качестве через торрент. На UnionPeer.org можно скачать через торрент фильмы 2014 и 2015 годов. Самые новые фильмы.

Скачать торрент Купи меня бесплатно через .torrent фильм мультфильм сериал

Статистика раздачи
Размер:  1.46 GB   |    Зарегистрирован:  14 дней   |    .torrent скачан:  62 раза   |   
Раздают:  1  
   
загрузка...
 
Автор Сообщение

Galfimbul

avatar Galfimbul


Купи меня

Страна: Россия
Жанр: мелодрама
Год выпуска: 2018
Продолжительность: 01:42:33
Субтитры: нет
Режиссер:
Вадим Перельман
В ролях:
Анна Адамович, Юлия Хлынина, Светлана Устинова, Александр Цёма, Евгения Крюкова, Иван Добронравов, Анатолий Кот, Микаэль Джанибекян, Сабина Ахмедова, Александр Обласов
Описание:
Три девушки — три истории о том, как изменить свою жизнь и чем предстоит пожертвовать, чтобы стать «счастливыми». Порше, олигархи, секс, любовь и мечты о красивой жизни. Смогут ли героини добиться успеха, или они сломаются, так и не дойдя до цели?
Качество видео: HDTVRip
Формат видео: AVI

Видео: 720x304 (2.37:1), 25 fps, XviD build 73 ~1577 kbps avg, 0.29 bit/pixel
Аудио: 48 kHz, AC3 Dolby Digital, 3/2 (L,C,R,l,r) + LFE ch, ~448 kbps
Сэмпл
Format                      : AVI
Format/Info                 : Audio Video Interleave
File size                   : 1.46 GiB
Duration                    : 1 h 42 min
Overall bit rate            : 2 035 kb/s
Writing application         : VirtualDubMod 1.5.10.3 | www.virtualdub-fr.org || (build 2550/release)
Writing library             : VirtualDubMod build 2550/release

Video
ID                          : 0
Format                      : MPEG-4 Visual
Format profile              : Advanced [email protected]
Format settings             : BVOP1 / Custom Matrix
Format settings, BVOP       : 1
Format settings, QPel       : No
Format settings, GMC        : No warppoints
Format settings, Matrix     : Custom
Codec ID                    : XVID
Codec ID/Hint               : XviD
Duration                    : 1 h 42 min
Bit rate                    : 1 577 kb/s
Width                       : 720 pixels
Height                      : 304 pixels
Display aspect ratio        : 2.35:1
Frame rate                  : 25.000 FPS
Color space                 : YUV
Chroma subsampling          : 4:2:0
Bit depth                   : 8 bits
Scan type                   : Progressive
Compression mode            : Lossy
Bits/(Pixel*Frame)          : 0.288
Stream size                 : 1.13 GiB (78%)
Writing library             : XviD 73

Audio
ID                          : 1
Format                      : AC-3
Format/Info                 : Audio Coding 3
Codec ID                    : 2000
Duration                    : 1 h 42 min
Bit rate mode               : Constant
Bit rate                    : 448 kb/s
Channel(s)                  : 6 channels
Channel positions           : Front: L C R, Side: L R, LFE
Sampling rate               : 48.0 kHz
Frame rate                  : 31.250 FPS (1536 SPF)
Bit depth                   : 16 bits
Compression mode            : Lossy
Stream size                 : 329 MiB (22%)
Alignment                   : Split accross interleaves
Interleave, duration        : 40  ms (1.00 video frame)
Interleave, preload duratio : 500  ms
Service kind                : Complete Main


Трекер:  [ 06-Апр-2018 20:24 ]

  

Скачать .torrent

Размер .torrent файла 15 KB


Размер: 1.46 GB
Хэш (hash) релиза: a734afb18abf64f7e00146b47fa70d2326dfcf94
Подписка на обновления:

Торренты, похожие на Купи меня скачать торрент

Форум Название Автор Размер S L Добавлен
Российские фильмы 2016-2018 (Новинки русского кино) ·· Купи меня (Вадим Перельман) [2018 г., мелодрама, WEB-DL 720p] iTunes Galfimbul 35786212563.33 GB 0 0 1523505017

06:50

12-Апр-18

Российские фильмы 2016-2018 (Новинки русского кино) ·· Купи меня (Вадим Перельман) [2018 г., мелодрама, WEB-DLRip] iTunes Galfimbul 15648419841.46 GB 1 60 1523505009

06:50

12-Апр-18

Российские фильмы до 2016 ·· Купи меня (Вадим Перельман) [2017, Россия, мелодрама, HDTV 1080i] Original Rus Galfimbul 50315970324.69 GB 0 0 1523316616

02:30

10-Апр-18

Российские фильмы 2016-2018 (Новинки русского кино) ·· Купи меня (Вадим Перельман) [2018 г., мелодрама, HDTVRip] Galfimbul 15481323521.44 GB 0 0 1523123562

20:52

7-Апр-18

Российские фильмы 2016-2018 (Новинки русского кино) ·· Купи меня (Вадим Перельман) [2018, Драма, мелодрама, HDTVRip] Galfimbul 15804445761.47 GB 0 0 1523017232

15:20

6-Апр-18

Российские фильмы 2016-2018 (Новинки русского кино) ·· Купи меня (Вадим Перельман) [2018 г., мелодрама, TS 720p] Galfimbul 26893117252.5 GB 0 0 1520073940

13:45

3-Мар-18

Российские фильмы 2016-2018 (Новинки русского кино) ·· Купи меня (Вадим Перельман) [2018 г., мелодрама, TS] Galfimbul 14675660801.37 GB 0 0 1520073913

13:45

3-Мар-18

Еще никто не оставлял запись к записи скачать торрент Купи меня . Будь первым!

!Обратная связь