Small Business Management Case Study
Full Movie western movies full length free

Скачать через торрент Ночь Грешников Фильм бесплатно в хорошем качестве torrent

Скачивайте на UnionPeer.org фильмы через торрент без регистрации. Новинки кино в хорошем качестве через торрент. На UnionPeer.org можно скачать через торрент фильмы 2014 и 2015 годов. Самые новые фильмы.

Скачать торрент Ночь Грешников бесплатно через .torrent фильм мультфильм сериал

Статистика раздачи
Размер:  1.37 GB   |    Зарегистрирован:  12 дней   |    .torrent скачан:  29 раз   |   
Раздают:  1  
   
загрузка...
 
Автор Сообщение

Galfimbul

avatar Galfimbul


Ночь Грешников

Жанр: Драма
Год выпуска: 1991
Продолжительность: 01:26:19

Режиссёр: Вадим Костроменко

В ролях: Людмила Шевель, Руслан Кахруманов, Евгений Дворжецкий, Юрий Саранцев, Сергей Чонишвили, Алексей Ясулович, Алла Будницкая, Игорь Волков-Шатурский, Наталья Батрак, Анатолий Шведерский, Наталья Рожкова, Марина Сахарова, Наталья Ипатова.

Описание: По мотивам повести Леонида Андреева «Тьма»

Скрываясь от полиции, террорист-народоволец Алексей случайно попадает в публичный дом, где знакомится с проституткой Любкой. Всего одна ночь отпущена им судьбой, но вместит она в себя две прожитые жизни. Мелодрама, драма, трагедия — таков накал страстей, переживаемый героями фильма.

Доп. информация: Оцифровка VHS (личный архив) и получение VHSRip alenavova

Эксклюзив для rutracker.org. При размещении данного релиза на других сайтах ссылка на автора alenavova обязательна.

Релиз

Сэмпл: http://yadi.sk/i/EpV7DLrd3UAqk6

Качество видео: VHSRip
Формат видео: AVI

Видео: 704x528 (1.33:1), 25 fps, XviD build 73 ~2065 kbps avg, 0.22 bit/pixel
Аудио: 48 kHz, AC3 Dolby Digital, 2/0 (L,R) ch, ~192 kbps
Ночь Грешников [by alenavova].avi
Format : AVI
Format/Info : Audio Video Interleave
File size : 1.37 GiB
Duration : 1 h 26 min
Overall bit rate : 2 267 kb/s
Movie name : Ночь Грешников [by alenavova]
Director : by alenavova
Writing application : VirtualDubMod 1.5.10.3 | www.virtualdub-fr.org || (build 2550/release)
Copyright : Edich2
Comment : RuTracker.org

Video
ID : 0
Format : MPEG-4 Visual
Format profile : Advanced [email protected]
Format settings, BVOP : 2
Format settings, QPel : No
Format settings, GMC : No warppoints
Format settings, Matrix : Custom
Codec ID : XVID
Codec ID/Hint : XviD
Duration : 1 h 26 min
Bit rate : 2 066 kb/s
Width : 704 pixels
Height : 528 pixels
Display aspect ratio : 4:3
Frame rate : 25.000 FPS
Color space : YUV
Chroma subsampling : 4:2:0
Bit depth : 8 bits
Scan type : Progressive
Compression mode : Lossy
Bits/(Pixel*Frame) : 0.222
Stream size : 1.25 GiB (91%)
Writing library : XviD 73

Audio
ID : 1
Format : AC-3
Format/Info : Audio Coding 3
Format settings, Endianness : Big
Codec ID : 2000
Duration : 1 h 26 min
Bit rate mode : Constant
Bit rate : 192 kb/s
Channel(s) : 2 channels
Channel positions : Front: L R
Sampling rate : 48.0 kHz
Frame rate : 31.250 FPS (1536 spf)
Bit depth : 16 bits
Compression mode : Lossy
Stream size : 119 MiB (8%)
Alignment : Split accross interleaves
Interleave, duration : 40 ms (1.00 video frame)
Interleave, preload duratio : 500 ms
Service kind : Complete Main


Трекер:  [ 06-Апр-2018 19:54 ]

  

Скачать .torrent

Размер .torrent файла 14 KB


Размер: 1.37 GB
Хэш (hash) релиза: abddf706c4e04cbc8d132257098238b7ac7c2147
Подписка на обновления:

Еще никто не оставлял запись к записи скачать торрент Ночь Грешников . Будь первым!

!Обратная связь