Oppa Thinking - 오빠생각Oppa Thinking
Continuer la lecture

Скачать через торрент Без лица 12 Face Off 12 Фильм бесплатно в хорошем качестве torrent

Скачивайте на UnionPeer.org фильмы через торрент без регистрации. Новинки кино в хорошем качестве через торрент. На UnionPeer.org можно скачать через торрент фильмы 2014 и 2015 годов. Самые новые фильмы.

Скачать торрент Без лица 12 Face Off 12 бесплатно через .torrent фильм мультфильм сериал

Статистика раздачи
Размер:  1.01 GB   |    Зарегистрирован:  20 дней   |    .torrent скачан:  26 раз   |   
Раздают:  1  
   
загрузка...
 
Автор Сообщение

Galfimbul

avatar Galfimbul


Без лица 12 | Face Off 12

Страна: США
Тип раздаваемого материала: реалити-шоу
Продолжительность: ~00:43:00
Год выпуска: 2017

Язык: Русский
Перевод: Одноголосый закадровый ViruseProject

Режиссер: Питер Ней
В ролях: МакКензи Вестмор, Гленн Хетрик, Ви Нилл, Майкл Вестмор, Невилл Пейдж, Кристофер Трой, Меган Альбертус и др.

Описание: Американское реалити-шоу, в котором соревнуются непрофессиональные гримёры — создатели спецэффектов для кино и театра. Каждую неделю конкурсанты получают задание по созданию образа (гибрид человека и животного, инопланетянин, маньяк, зомби, сказочный персонаж, грим, меняющий пол человека и тд.) и по итогам оценки жюри самый слабый конкурсант покидает шоу.

Качество: WEBRip 720р
Формат: MKV
Видео кодек: H.264
Аудио кодек: AAC
Видео: AVC, 1 280x720 (16:9), 23.976 fps, ~4 000 Kbps, 8 bits
Аудио: 48 KHz, AAC, 2 channels, 192 kbps

General
Unique ID : 181661284560864161402892069678010786842 (0x88AAB0D61DE17C709692126F0E62E41A)
Complete name : E:\ОЗВУЧКА\ТЕЛЕПЕРЕДАЧИ\Face.Off.S12.720p.ViruseProject\Face.Off.S12.720p.ViruseProject\Face.Off.S12E01.720p.ViruseProject.mkv
Format : Matroska
Format version : Version 4 / Version 2
File size : 1.01 GiB
Duration : 43 min 28 s
Overall bit rate mode : Variable
Overall bit rate : 3 338 kb/s
Encoded date : UTC 2018-04-06 07:37:19
Writing application : mkvmerge v8.3.0 ('Over the Horizon') 64bit
Writing library : libebml v1.3.1 + libmatroska v1.4.2

Video
ID : 1
Format : AVC
Format/Info : Advanced Video Codec
Format profile : [email protected]
Format settings, CABAC : Yes
Format settings, ReFrames : 2 frames
Format settings, GOP : M=2, N=12
Codec ID : V_MPEG4/ISO/AVC
Duration : 43 min 28 s
Bit rate mode : Variable
Bit rate : 3 143 kb/s
Maximum bit rate : 4 000 kb/s
Width : 1 280 pixels
Height : 720 pixels
Display aspect ratio : 16:9
Frame rate mode : Constant
Frame rate : 23.976 (24000/1001) FPS
Color space : YUV
Chroma subsampling : 4:2:0
Bit depth : 8 bits
Scan type : Progressive
Bits/(Pixel*Frame) : 0.142
Stream size : 978 MiB (94%)
Language : English
Default : Yes
Forced : No

Audio
ID : 2
Format : AAC
Format/Info : Advanced Audio Codec
Format profile : LC
Codec ID : A_AAC
Duration : 43 min 28 s
Bit rate : 192 kb/s
Channel(s) : 2 channels
Channel positions : Front: L R
Sampling rate : 48.0 kHz
Frame rate : 46.875 FPS (1024 spf)
Compression mode : Lossy
Stream size : 59.7 MiB (6%)
Title : ViruseProject
Language : Russian
Default : Yes
Forced : No
[b]Внимание! Раздача ведётся путём добавления новых серий; при каждом добавлении создаётся новый торрент. Чтобы начать докачку новой серии, пользователям необходимо сделать следующее:
(1) остановить скачивание,
(2) удалить старый торрент у себя из клиента (старые серии удалять не надо),
(3) скачать новый торрент и запустить его у себя в клиенте вместо старого, при этом указать клиенту путь в старую папку куда и должно происходить скачивание новых серий.

Eсли вы уже удалили старые серии, то предотвратить повторную закачку старых серий можно, отжав галочку в соответствующих местах при запуске нового торрента. По возможности, желательно не удалять старые серии как можно дольше чтобы релизёр не столько продолжал раздавать старые серии, а смог сконцентрироваться на новых.


Трекер:  [ 06-Апр-2018 12:12 ]

  

Скачать .torrent

Размер .torrent файла 10 KB


Размер: 1.01 GB
Хэш (hash) релиза: 47d3299d33ef4b6ef019c2ce3280661bd486e327
Подписка на обновления:

Еще никто не оставлял запись к записи скачать торрент Без лица 12 Face Off 12 . Будь первым!

!Обратная связь