Adult Talk
Playboy Magazine 2018 April

Скачать через торрент Поднять якоря! Elias og Storegaps Hemmelighet Фильм бесплатно в хорошем качестве torrent

Скачивайте на UnionPeer.org фильмы через торрент без регистрации. Новинки кино в хорошем качестве через торрент. На UnionPeer.org можно скачать через торрент фильмы 2014 и 2015 годов. Самые новые фильмы.

Скачать торрент Поднять якоря! Elias og Storegaps Hemmelighet бесплатно через .torrent фильм мультфильм сериал

Статистика раздачи
Размер:  2.17 GB   |    Зарегистрирован:  14 дней   |    .torrent скачан:  96 раз   |   
Раздают:  1  
   
загрузка...
 
Автор Сообщение

Galfimbul

avatar Galfimbul


Год выхода: 2017
Наименование: Поднять якоря!
Оригинальное наименование: Elias og Storegaps Hemmelighet
Произведено: Норвегия
Жанр: мультфильм
Режиссер постановщик: Симен Альсвик
В главных ролях: Мари Блокхус, Андерз Эйде, Маркус Гуннарсен, Мартинус Гуннарсен, Свейн Роджер Карлсен, Магнус Креппер, Эспен Сандвик

О фильме: Спасательный катерок Элиас работает в небольшой бухте. Однажды во время шторма он слышит сигнал о помощи и выручает из беды корабль, идущий в крупный международный порт. После этого случая Элис становится настоящим героем и его приглашают работать спасателем в этот порт. Всё это очень льстит самолюбию Элиаса, но легко ли ему будет оставить друзей, к которым он так привык? Вдобавок ко всему работа на новом месте гораздо опасней, ведь неподалеку орудует шайка контрабандистов. Сумеет ли Элиас справиться со всем этим?



Файл
Качество: WEBRip 1080p
Видео данные: MKV, 1920x1080 (16:9), 25.000 fps, 4000 Кбит/с
Аудио данные: AC3, 2 ch, 384 Кбит/с
Перевод: Дублированный (Line)
Продолжительность: 01:11:10
General
Unique ID : 250016285093949411149901416932233281732 (0xBC17628FAAD579EAB38EF438BD5D80C4)
Complete name : E:ГРИНРАЙPodniat.yakor.2017.D.WEB-DL.1080p.mkv
Format : Matroska
Format version : Version 4 / Version 2
File size : 2.17 GiB
Duration : 1 h 11 min
Overall bit rate mode : Constant
Overall bit rate : 4 365 kb/s
Encoded date : UTC 2018-04-05 08:41:39
Writing application : mkvmerge v6.5.0 ('Isn't she lovely') built on Oct 20 2013 12:50:05
Writing library : libebml v1.3.0 + libmatroska v1.4.1

Video
ID : 1
Format : AVC
Format/Info : Advanced Video Codec
Format profile : [email protected]
Format settings : CABAC / 3 Ref Frames
Format settings, CABAC : Yes
Format settings, RefFrames : 3 frames
Codec ID : V_MPEG4/ISO/AVC
Duration : 1 h 11 min
Bit rate mode : Constant
Bit rate : 4 000 kb/s
Width : 1 920 pixels
Height : 1 080 pixels
Display aspect ratio : 16:9
Frame rate mode : Constant
Frame rate : 25.000 FPS
Standard : NTSC
Color space : YUV
Chroma subsampling : 4:2:0
Bit depth : 8 bits
Scan type : Progressive
Bits/(Pixel*Frame) : 0.077
Stream size : 1.94 GiB (89%)
Language : English
Default : Yes
Forced : No
Color range : Limited

Audio
ID : 2
Format : AC-3
Format/Info : Audio Coding 3
Codec ID : A_AC3
Duration : 1 h 11 min
Bit rate mode : Constant
Bit rate : 384 kb/s
Channel(s) : 2 channels
Channel positions : Front: L R
Sampling rate : 48.0 kHz
Frame rate : 31.250 FPS (1536 SPF)
Bit depth : 16 bits
Compression mode : Lossy
Stream size : 195 MiB (9%)
Service kind : Complete Main
Default : Yes
Forced : No
Внимание, имеется видео и аудио реклама от спонсора показа Релиз от:
Источник http://yarutor.org

Трекер:  [ 05-Апр-2018 23:00 ]

  

Скачать .torrent

Размер .torrent файла 11 KB


Размер: 2.17 GB
Хэш (hash) релиза: 97a5796b27518300e22e0ff577835d55cb752172
Подписка на обновления:

Торренты, похожие на Поднять якоря! Elias og Storegaps Hemmelighet скачать торрент

Форум Название Автор Размер S L Добавлен
Мультфильмы 2016-2018 (Новинки мультфильмов) ·· Поднять якоря! / Elias og Storegaps Hemmelighet (Симен Альсвик) [2017, мультфильм, WEBRip 720p] Line Galfimbul 23429801152.18 GB 0 0 1522940576

18:02

5-Апр-18

Еще никто не оставлял запись к записи скачать торрент Поднять якоря! Elias og Storegaps Hemmelighet . Будь первым!

!Обратная связь