épisode 21 streaming Monument Point | Liga Sprawiedliwych / Justice League | Mermaid Forest

Скачать через торрент Современная история любви Bang Gang бесплатно Аниме Все серии на русском torrent

Статистика раздачи
Размер:  1.46 GB   |    Зарегистрирован:  3 месяца 13 дней   |    .torrent скачан:  35 раз   |   
Раздают:  1  
   
загрузка...
 
Автор Сообщение

Galfimbul

avatar Galfimbul


Современная история любви / Bang Gang (une histoire d'amour moderne)

«Are You Ready For The Game?»
Страна: Франция
Жанр: драма
Год выпуска: 2015
Продолжительность: 01:34:05

Перевод 1: Одноголосый закадровый - Александр Дасевич
Перевод 2: Субтитры
Субтитры: русские
Оригинальная аудиодорожка: французская

Режиссер: Ева Хассон / Eva Husson

В ролях: Финнегэн Олдфилд, Мэрилин Лима, Лоренцо Лефевр, Дэйзи Брум, Фред Отье, Мануэль Хассон, Оливия Ланселот, Рафаэль Поршерон, Татьяна Вернер, Оливье Лефевр.

Описание: Зажиточные предместья одного города на Атлантическом побережье. Джордж, красивая 16-летняя девушка, влюбляется в Алекса. Чтобы привлечь его внимание, она затевает коллективную игру, в которой компания ее друзей будет открывать, пробовать и отодвигать границы своей сексуальности. Между скандалами и падением их системы ценностей каждый справляется с этим напряженным периодом совершенно по-разному.



Доп. информация: За исходник - DVD9 - благодарность направляется rulle1 и edus67
Набор субтитров выполнен vxga, закадровый текст читает Александр Дасевич
Конвертация в DVDRip - Arle-kino



Качество видео: DVDRip
Формат видео: AVI

Видео: 720x304 (2.37:1), 25 fps, XviD build 50 ~1562 kbps avg, 0.28 bit/pixel
Аудио 1: 48 kHz, AC3 Dolby Digital, 2/0 (L,R) ch, ~192 kbps - Rus
Аудио 2: 48 kHz, AC3 Dolby Digital, 3/2 (L,C,R,l,r) + LFE ch, ~448 kbps - Fra
Формат субтитров: softsub (SRT)
GeneralComplete name : D:\Public\Bang Gang (A Modern Love Story)\Bang Gang (une histoire d'amour moderne) - 2015 - DVDRip [Rus, Fra].aviFormat : AVIFormat/Info : Audio Video InterleaveFile size : 1.46 GiBDuration : 1 h 34 minOverall bit rate : 2 218 kb/sWriting application : VirtualDubMod 1.5.10.2 (build 2540/release)Writing library : VirtualDubMod build 2540/release

VideoID : 0Format : MPEG-4 VisualFormat profile : Advanced [email protected] settings, BVOP : 1Format settings, QPel : NoFormat settings, GMC : No warppointsFormat settings, Matrix : Default (MPEG)Codec ID : XVIDCodec ID/Hint : XviDDuration : 1 h 34 minBit rate : 1 564 kb/sWidth : 720 pixelsHeight : 304 pixelsDisplay aspect ratio : 2.35:1Frame rate : 25.000 FPSColor space : YUVChroma subsampling : 4:2:0Bit depth : 8 bitsScan type : ProgressiveCompression mode : LossyBits/(Pixel*Frame) : 0.286Stream size : 1.03 GiB (70%)Writing library : XviD 1.2.1 (UTC 2008-12-04)

Audio #1ID : 1Format : AC-3Format/Info : Audio Coding 3Format settings, Endianness : BigCodec ID : 2000Duration : 1 h 34 minBit rate mode : ConstantBit rate : 192 kb/sChannel(s) : 2 channelsChannel positions : Front: L RSampling rate : 48.0 kHzFrame rate : 31.250 FPS (1536 SPF)Bit depth : 16 bitsCompression mode : LossyStream size : 129 MiB (9%)Alignment : Split accross interleavesInterleave, duration : 40 ms (1.00 video frame)Interleave, preload duratio : 500 msTitle : RusService kind : Complete Main

Audio #2ID : 2Format : AC-3Format/Info : Audio Coding 3Format settings, Endianness : BigCodec ID : 2000Duration : 1 h 34 minBit rate mode : ConstantBit rate : 448 kb/sChannel(s) : 6 channelsChannel positions : Front: L C R, Side: L R, LFESampling rate : 48.0 kHzFrame rate : 31.250 FPS (1536 SPF)Bit depth : 16 bitsCompression mode : LossyStream size : 301 MiB (20%)Alignment : Split accross interleavesInterleave, duration : 40 ms (1.00 video frame)Interleave, preload duratio : 500 msTitle : FraService kind : Complete Main


Трекер:  [ 05-Апр-2018 21:01 ]

  

Скачать .torrent

Размер .torrent файла 15 KB


Размер: 1.46 GB
Хэш (hash) релиза: 2f9633f2fd6052a368bbed253e0651f08c8ed57c
Подписка на обновления:

Еще никто не оставлял запись к записи скачать торрент Современная история любви Bang Gang . Будь первым!

!Обратная связь