Jessica Henwick
Ain't Got Time To Waste

Скачать через торрент Третий не лишний Фильм бесплатно в хорошем качестве torrent

Скачивайте на UnionPeer.org фильмы через торрент без регистрации. Новинки кино в хорошем качестве через торрент. На UnionPeer.org можно скачать через торрент фильмы 2014 и 2015 годов. Самые новые фильмы.

Скачать торрент Третий не лишний бесплатно через .torrent фильм мультфильм сериал

Статистика раздачи
Размер:  1.09 GB   |    Зарегистрирован:  19 дней   |    .torrent скачан:  26 раз   |   
Раздают:  1  
   
загрузка...
 
Автор Сообщение

Galfimbul

avatar Galfimbul


Третий не лишний

Жанр: Комедия
Год выпуска: 1994
Продолжительность: 01:10:35

Режиссёр: Анатолий Эйрамджан

В ролях: Борис Щербаков, Михаил Кокшенов, Екатерина Зинченко, Ольга Толстецкая, Любовь Полищук, Михаил Державин, Роксана Бабаян, Людмила Иванова, Татьяна Алексеева

Описание: Миша, двоюродный брат Бори, вопреки воли матери и отца, любит неподходящую женщину Катю. Любит ее второй год и намерен жениться. Чтобы уберечь двоюродного брата от роковой ошибки и будущих семейных неприятностей, Боря нанимает за тысячу долларов агента Олю, которая во время круиза на теплоходе из Одессы в Сингапур должна приударить за Мишей и навсегда разлучить его с Катей. Во время путешествия герои познакомятся с достопримечательностями экзотических стран, получше узнают друг друга, и совершенно естественно решат все проблемы.

Доп. информация: Оцифровка VHS (личный архив) и получение VHSRip alenavova

Эксклюзив для rutracker.org. При размещении данного релиза на других сайтах ссылка на автора alenavova обязательна.

Релиз

Сэмпл: http://yadi.sk/i/H2jjz7QE3U8mLE

Качество видео: VHSRip
Формат видео: AVI

Видео: 704x544 (1.29:1), 25 fps, XviD build 73 ~2003 kbps avg, 0.21 bit/pixel
Аудио: 48 kHz, AC3 Dolby Digital, 2/0 (L,R) ch, ~192 kbps
Третий не лишний [by alenavova].avi
Format : AVI
Format/Info : Audio Video Interleave
File size : 1.09 GiB
Duration : 1 h 10 min
Overall bit rate : 2 205 kb/s
Movie name : Третий не лишний [by alenavova]
Director : by alenavova
Writing application : VirtualDubMod 1.5.10.3 | www.virtualdub-fr.org || (build 2550/release)
Copyright : Edich2
Comment : RuTracker.org

Video
ID : 0
Format : MPEG-4 Visual
Format profile : Advanced [email protected]
Format settings, BVOP : 2
Format settings, QPel : No
Format settings, GMC : No warppoints
Format settings, Matrix : Custom
Codec ID : XVID
Codec ID/Hint : XviD
Duration : 1 h 10 min
Bit rate : 2 003 kb/s
Width : 704 pixels
Height : 544 pixels
Display aspect ratio : 1.294
Frame rate : 25.000 FPS
Color space : YUV
Chroma subsampling : 4:2:0
Bit depth : 8 bits
Scan type : Progressive
Compression mode : Lossy
Bits/(Pixel*Frame) : 0.209
Stream size : 1 011 MiB (91%)
Writing library : XviD 73

Audio
ID : 1
Format : AC-3
Format/Info : Audio Coding 3
Format settings, Endianness : Big
Codec ID : 2000
Duration : 1 h 10 min
Bit rate mode : Constant
Bit rate : 192 kb/s
Channel(s) : 2 channels
Channel positions : Front: L R
Sampling rate : 48.0 kHz
Frame rate : 31.250 FPS (1536 spf)
Bit depth : 16 bits
Compression mode : Lossy
Stream size : 96.9 MiB (9%)
Alignment : Split accross interleaves
Interleave, duration : 40 ms (1.00 video frame)
Interleave, preload duratio : 500 ms
Service kind : Complete Main


Трекер:  [ 05-Апр-2018 20:24 ]

  

Скачать .torrent

Размер .torrent файла 11 KB


Размер: 1.09 GB
Хэш (hash) релиза: 1939c43a7e54388bfd783eaff495eea62ea48b52
Подписка на обновления:

Торренты, похожие на Третий не лишний скачать торрент

Форум Название Автор Размер S L Добавлен
Российские фильмы до 2016 ·· Третий не лишний (Анатолий Эйрамджан) [1994, Комедия, DVDRip] Galfimbul 772616192737 MB 0 0 1341168180

21:43

1-Июл-12

Еще никто не оставлял запись к записи скачать торрент Третий не лишний . Будь первым!

!Обратная связь