Lou Andreas Salome (2016) bopic alemán sobre la escritora
Mercedinio Cisneros Jr.

Скачать через торрент О чём говорят мужчины. Продолжение Фильм бесплатно в хорошем качестве torrent

Скачивайте на UnionPeer.org фильмы через торрент без регистрации. Новинки кино в хорошем качестве через торрент. На UnionPeer.org можно скачать через торрент фильмы 2014 и 2015 годов. Самые новые фильмы.

Скачать торрент О чём говорят мужчины. Продолжение бесплатно через .torrent фильм мультфильм сериал

Статистика раздачи
Размер:  743 MB   |    Зарегистрирован:  19 дней   |    .torrent скачан:  90 раз   |   
Раздают:  1  
   
загрузка...
 
Автор Сообщение

Galfimbul

avatar Galfimbul


О чём говорят мужчины. Продолжение

Страна: Россия
Жанр: комедия
Год выпуска: 2018
Продолжительность: 01:34:37
Субтитры: нет
Режиссер: Флюза Фархшатова
В ролях: Леонид Барац, Александр Демидов, Камиль Ларин, Ростислав Хаит, Алексей Барабаш, Елена Подкаминская, Татьяна Догилева, Леонид Каневский, Кристина Бабушкина, Михаил Прохоров
Описание: На этот раз Леша, Слава, Камиль и Саша едут в Питер. Причём трое из четверых даже не знают, зачем они туда едут. Но в какой-то момент становится понятно, что неважно — зачем. Важно, что едут. И, конечно, плохо, что дома осталась куча нерешённых проблем, но как же хорошо, что про них можно не думать… хотя бы до понедельника. И ещё, конечно, плохо, что отстали от «Сапсана» и пришлось ехать в плацкарте, но как же это неожиданно хорошо… и уютно. А ещё неожиданно хорошо бывает выпить в пять утра текилу-бум. Вроде рано… но так вовремя! А как это вдохновляет на всякие свершения!
Качество видео: WEB-DLRip
Формат видео: AVI

Видео: 688x368 (1.87:1), 25 fps, XviD build 73 ~960 kbps avg, 0.15 bit/pixel
Аудио: 48 kHz, MPEG Layer 3, 2 ch, ~128.00 kbps avg
Сэмпл
Format                      : AVI
Format/Info                 : Audio Video Interleave
File size                   : 743 MiB
Duration                    : 1 h 34 min
Overall bit rate            : 1 099 kb/s
Writing application         : VirtualDubMod 1.5.10.3 | www.virtualdub-fr.org || (build 2550/release)
Writing library             : VirtualDubMod build 2550/release

Video
ID                          : 0
Format                      : MPEG-4 Visual
Format profile              : Advanced [email protected]
Format settings             : BVOP1
Format settings, BVOP       : 1
Format settings, QPel       : No
Format settings, GMC        : No warppoints
Format settings, Matrix     : Default (H.263)
Codec ID                    : XVID
Codec ID/Hint               : XviD
Duration                    : 1 h 34 min
Bit rate                    : 961 kb/s
Width                       : 688 pixels
Height                      : 368 pixels
Display aspect ratio        : 1.85:1
Frame rate                  : 25.000 FPS
Color space                 : YUV
Chroma subsampling          : 4:2:0
Bit depth                   : 8 bits
Scan type                   : Progressive
Compression mode            : Lossy
Bits/(Pixel*Frame)          : 0.152
Stream size                 : 650 MiB (87%)
Writing library             : XviD 73

Audio
ID                          : 1
Format                      : MPEG Audio
Format version              : Version 1
Format profile              : Layer 3
Codec ID                    : 55
Codec ID/Hint               : MP3
Duration                    : 1 h 34 min
Bit rate mode               : Constant
Bit rate                    : 128 kb/s
Channel(s)                  : 2 channels
Sampling rate               : 48.0 kHz
Frame rate                  : 41.667 FPS (1152 SPF)
Compression mode            : Lossy
Stream size                 : 86.6 MiB (12%)
Alignment                   : Aligned on interleaves
Interleave, duration        : 40  ms (1.00 video frame)
Interleave, preload duratio : 504  ms
Writing library             : LAME3.99r
Encoding settings           : -m s -V 4 -q 2 -lowpass 17 -b 128


Трекер:  [ 05-Апр-2018 19:24 ]

  

Скачать .torrent

Размер .torrent файла 15 KB


Размер: 743 MB
Хэш (hash) релиза: 41e069d10fe850a59217bf92c5f02df09d81a880
Подписка на обновления:

Еще никто не оставлял запись к записи скачать торрент О чём говорят мужчины. Продолжение . Будь первым!

!Обратная связь