Snowpiercer (2013) 720p BrRip x264 - YIFY | Pruitt Taylor Vince | IMDb: 0.0 S1E6 Marvel Rising Initiation SHORTS - Season 1

Скачать через торрент Поднять якоря! Elias og Storegaps Hemmelighet Фильм бесплатно в хорошем качестве torrent

Скачивайте на UnionPeer.org фильмы через торрент без регистрации. Новинки кино в хорошем качестве через торрент. На UnionPeer.org можно скачать через торрент фильмы 2014 и 2015 годов. Самые новые фильмы.

Скачать торрент Поднять якоря! Elias og Storegaps Hemmelighet бесплатно через .torrent фильм мультфильм сериал

Статистика раздачи
Размер:  2.18 GB   |    Зарегистрирован:  4 месяца 13 дней   |    .torrent скачан:  67 раз   |   
Раздают:  1  
   
загрузка...
 
Автор Сообщение

Galfimbul

avatar Galfimbul


Год выхода: 2017
Наименование: Поднять якоря!
Оригинальное наименование: Elias og Storegaps Hemmelighet
Произведено: Норвегия
Жанр: мультфильм
Режиссер постановщик: Симен Альсвик
В главных ролях: Мари Блокхус, Андерз Эйде, Маркус Гуннарсен, Мартинус Гуннарсен, Свейн Роджер Карлсен, Магнус Креппер, Эспен Сандвик

О фильме: Спасательный катерок Элиас работает в небольшой бухте. Однажды во время шторма он слышит сигнал о помощи и выручает из беды корабль, идущий в крупный международный порт. После этого случая Элис становится настоящим героем и его приглашают работать спасателем в этот порт. Всё это очень льстит самолюбию Элиаса, но легко ли ему будет оставить друзей, к которым он так привык? Вдобавок ко всему работа на новом месте гораздо опасней, ведь неподалеку орудует шайка контрабандистов. Сумеет ли Элиас справиться со всем этим?



Файл
Качество: WEBRip 720p
Видео данные: MKV, 1280x720 (16:9), 25.000 fps, 3918 Кбит/с
Аудио данные: AC3, 2 ch, 384 Кбит/с
Перевод: Дублированный (Line)
Продолжительность: 01:11:10
General
Unique ID : 225270779831408395565022965830967271031 (0xA97992F4C32AA1098E0F9BF6955A9E77)
Complete name : E:ГРИНРАЙPodniat.yakor.2017.D.WEB-DL.720p.mkv
Format : Matroska
Format version : Version 4 / Version 2
File size : 2.18 GiB
Duration : 1 h 11 min
Overall bit rate : 4 389 kb/s
Encoded date : UTC 2018-04-05 08:42:48
Writing application : mkvmerge v6.5.0 ('Isn't she lovely') built on Oct 20 2013 12:50:05
Writing library : libebml v1.3.0 + libmatroska v1.4.1

Video
ID : 1
Format : AVC
Format/Info : Advanced Video Codec
Format profile : [email protected]
Format settings : CABAC / 4 Ref Frames
Format settings, CABAC : Yes
Format settings, RefFrames : 4 frames
Codec ID : V_MPEG4/ISO/AVC
Duration : 1 h 11 min
Bit rate : 3 918 kb/s
Width : 1 280 pixels
Height : 720 pixels
Display aspect ratio : 16:9
Frame rate mode : Constant
Frame rate : 25.000 FPS
Color space : YUV
Chroma subsampling : 4:2:0
Bit depth : 8 bits
Scan type : Progressive
Bits/(Pixel*Frame) : 0.170
Stream size : 1.95 GiB (89%)
Writing library : x264 core 146 r2538 121396c
Encoding settings : cabac=1 / ref=1 / deblock=1:0:0 / analyse=0x3:0x113 / me=hex / subme=2 / psy=1 / psy_rd=1.00:0.00 / mixed_ref=0 / me_range=16 / chroma_me=1 / trellis=0 / 8x8dct=1 / cqm=0 / deadzone=21,11 / fast_pskip=1 / chroma_qp_offset=0 / threads=9 / lookahead_threads=3 / sliced_threads=0 / nr=0 / decimate=1 / interlaced=0 / bluray_compat=0 / constrained_intra=0 / bframes=3 / b_pyramid=2 / b_adapt=1 / b_bias=0 / direct=1 / weightb=1 / open_gop=0 / weightp=1 / keyint=250 / keyint_min=25 / scenecut=40 / intra_refresh=0 / rc_lookahead=10 / rc=crf / mbtree=1 / crf=16.4 / qcomp=0.60 / qpmin=0 / qpmax=69 / qpstep=4 / ip_ratio=1.40 / aq=1:1.00
Language : English
Default : Yes
Forced : No

Audio
ID : 2
Format : AC-3
Format/Info : Audio Coding 3
Codec ID : A_AC3
Duration : 1 h 11 min
Bit rate mode : Constant
Bit rate : 384 kb/s
Channel(s) : 2 channels
Channel positions : Front: L R
Sampling rate : 48.0 kHz
Frame rate : 31.250 FPS (1536 SPF)
Bit depth : 16 bits
Compression mode : Lossy
Stream size : 195 MiB (9%)
Service kind : Complete Main
Default : Yes
Forced : No
Внимание, имеется видео и аудио реклама от спонсора показа Релиз от:
Источник http://blator.org

Трекер:  [ 05-Апр-2018 18:00 ]

  

Скачать .torrent

Размер .torrent файла 11 KB


Размер: 2.18 GB
Хэш (hash) релиза: 3b2c7138848b3bb7155c6d8d21315bc81e40c4a3
Подписка на обновления:

Торренты, похожие на Поднять якоря! Elias og Storegaps Hemmelighet скачать торрент

Форум Название Автор Размер S L Добавлен
Мультфильмы 2016-2018 (Новинки мультфильмов) ·· Поднять якоря! / Elias og Storegaps Hemmelighet (Симен Альсвик) [2017, мультфильм, WEBRip 1080p] Line Galfimbul 23298103332.17 GB 0 0 1522958444

23:00

5-Апр-18

Еще никто не оставлял запись к записи скачать торрент Поднять якоря! Elias og Storegaps Hemmelighet . Будь первым!

!Обратная связь