Wanderlust UK - March 2018
ia-ti mireasa ziua buna

Скачать через торрент Токийский гуль бесплатно Аниме Все серии на русском torrent

Статистика раздачи
Размер:  564 MB   |    Зарегистрирован:  21 день   |    .torrent скачан:  24 раза   |   
Раздают:  1  
   
загрузка...
 
Автор Сообщение

Galfimbul

avatar Galfimbul


Токийский гуль (ТВ-3) / Tokyo Ghoul:re [TV]

Страна: Япония
Год выпуска: 2018
Жанр: приключения, мистика, ужасы, сэйнэн
Тип: TV
Продолжительность: 12 эп. по ~24 мин.
Режиссер: Морита Сюхэй
Студия: Studio Pierrot
Озвучка: Многоголосая закадровая (студия Zone Vision) (лицензия)

Описание: Много лет прошло с момента разрушения «Антэйку». На данный момент CCG — единственная организация, занимающаяся вопросом по защите от гулей, — решает взять над противником верх при помощи имплантации своим агентам какухо, защитного и охотничьего органа гулей. Имплантация прошла успешно, и, в итоге, был создан отряд «Куинкс» из четырёх человек, менторство над которыми взял Хайсэ Сасаки.

Хотя Хайсэ — первый из куинксов, его происхождение окутано тайнами и загадками, в частности для него самого. Сасаки с уверенностью может сказать, кем он является сейчас, однако не может вспомнить остальные двадцать лет своей жизни и понять, что за странные голоса сопровождают его мысли. Дабы навести порядок в голове, Хайсэ сосредоточивается на актуальных задачах: подготовке своих бойцов, а также достижении своей личной цели — превзойти следователя Кишо Ариму.
Отряд «Куинкс» должен научиться контролировать силу гуля внутри самих себя для того, чтобы продемонстрировать свои силы CCG. Многие другие команды смотрят на куинксов с подозрением, но Хайсэ и его отряд готовы побороться за репутацию.
Пока члены «Куинкса» изо всех сил пытаются реализовать себя, гули из «Древа Аогири» становятся для людей проблемой номер один. Как и всегда, все попытки CCG по уничтожения гулей на корню пресекаются всё новой и новой организацией гулей — более сильной, более умной, более собранной, чем предыдущая. По мере того, как война между человеком и гулем набирает обороты, на поле боя начинают появляться знакомые из прошлых сражений лица.

Качество: WEBRip
Тип релиза: Без хардсаба
Формат видео: MKV
Наличие линковки: Нет
Видео: H.264, 3072 kb/s, 1920x1080, 8 bits, 23.976 fps
Аудио: Русский, AAC, 192 kb/s, 48.0 kHz, 2 channels, (в составе контейнера)
Семпл
GeneralUnique ID : 230100145543469919508422146498548232959 (0xAD1BAD11ADB444E3BD95CC51A0F472FF)Complete name : D:\Anime\Tokyo.Ghoul.S03.H.264.2018.WEBRip\Tokyo.Ghoul.S03E01.H.264.2018.WEBRip.mkvFormat : MatroskaFormat version : Version 4 / Version 2File size : 564 MiBDuration : 24 min 10 sOverall bit rate : 3 262 kb/sEncoded date : UTC 2018-04-05 03:35:50Writing application : mkvmerge v13.0.0 ('The Juggler') 64bitWriting library : libebml v1.3.4 + libmatroska v1.4.5

VideoID : 1Format : AVCFormat/Info : Advanced Video CodecFormat profile : [email protected] settings, CABAC : YesFormat settings, ReFrames : 4 framesCodec ID : V_MPEG4/ISO/AVCDuration : 24 min 10 sBit rate : 3 072 kb/sWidth : 1 920 pixelsHeight : 1 080 pixelsDisplay aspect ratio : 16:9Frame rate mode : ConstantFrame rate : 23.976 (24000/1001) FPSOriginal frame rate : 23.976 (23976/1000) FPSColor space : YUVChroma subsampling : 4:2:0Bit depth : 8 bitsScan type : ProgressiveBits/(Pixel*Frame) : 0.062Stream size : 531 MiB (94%)Writing library : x264 core 120 r2120 0c7dab9Encoding settings : cabac=1 / ref=4 / deblock=1:1:1 / analyse=0x3:0x113 / me=umh / subme=8 / psy=1 / psy_rd=0.40:0.00 / mixed_ref=1 / me_range=16 / chroma_me=1 / trellis=1 / 8x8dct=1 / cqm=0 / deadzone=21,11 / fast_pskip=1 / chroma_qp_offset=-2 / threads=8 / sliced_threads=0 / nr=0 / decimate=1 / interlaced=0 / bluray_compat=0 / constrained_intra=0 / bframes=3 / b_pyramid=2 / b_adapt=2 / b_bias=0 / direct=3 / weightb=1 / open_gop=0 / weightp=2 / keyint=250 / keyint_min=23 / scenecut=40 / intra_refresh=0 / rc_lookahead=50 / rc=2pass / mbtree=1 / bitrate=3072 / ratetol=1.0 / qcomp=0.60 / qpmin=0 / qpmax=69 / qpstep=4 / cplxblur=20.0 / qblur=0.5 / vbv_maxrate=6144 / vbv_bufsize=15360 / nal_hrd=none / ip_ratio=1.40 / aq=1:0.60Language : RussianDefault : YesForced : No

AudioID : 2Format : AACFormat/Info : Advanced Audio CodecFormat profile : LCCodec ID : A_AACDuration : 24 min 10 sBit rate : 192 kb/sChannel(s) : 2 channelsChannel positions : Front: L RSampling rate : 48.0 kHzFrame rate : 46.875 FPS (1024 spf)Compression mode : LossyStream size : 32.7 MiB (6%)Language : RussianDefault : YesForced : No
01. Охотники


Трекер:  [ 05-Апр-2018 17:30 ]

  

Скачать .torrent

Размер .torrent файла 11 KB


Размер: 564 MB
Хэш (hash) релиза: 25508b546176b44be250748f2296705188444c37
Подписка на обновления:

Торренты, похожие на Токийский гуль скачать торрент

Форум Название Автор Размер S L Добавлен
Аниме | Rips ·· Токийский Гуль / Tokyo Ghoul / Токийский монстр [TV] [12 из 12] [Без хардсаба] [RUS(int)] [2014 г., экшен, мистика, драма, ужасы, HDTVRip] [720p] Galfimbul 42141929593.92 GB 0 0 1411813882

13:31

27-Сен-14

Аниме | Rips ·· Токийский монстр / Токийский гуль / Tokyo Ghoul [TV] [01-12 из 12] [без хардсаба] [RUS(int), JAP+SUB] [2014 г., приключения, ужасы, мистика, психология, сёнэн, сверхъестественное, HDTVRip] [720p] Galfimbul 49829034424.64 GB 0 0 1411232568

20:02

20-Сен-14

Аниме | HD Rips ·· Токийский гуль / Токийский монстр / Tokyo Ghoul [TV] [без хардсаба] [JAP+SUB] [9 из 12] & [RUS(ext)] [8 из 12] [2014 г., приключения, HDTVRip] [720p] Galfimbul 34883948553.25 GB 0 0 1409310061

14:01

29-Авг-14

Аниме | HD Rips ·· Токийский гуль ТВ-3 / Tokyo Ghoul: Re (TV) [01 из 12] [2018] [Фантастика, приключения] [HDTVRip720p] [Любительская] JAM CLUB Bot 343040943327 MB 0 0 1522919885

12:18

5-Апр-18

Аниме | HD Rips ·· Токийский гуль (ТВ-1) / Tokyo Ghoul [TV] [1-2 из 12] [Без хардсаба] [RUS(int)] [2014, приключения, мистика, ужасы, сэйнэн, BDRip] [1080p] Galfimbul 548855840523 MB 1 1 1515092570

22:02

4-Янв-18

Аниме | Rips ·· Токийский гуль (ТВ-2) / Tokyo Ghoul Root A [TV] [1 из 12] [без хардсаба] [RUS(int)] [2015, приключения, мистика, ужасы, SATRip] Galfimbul 213090963203 MB 0 0 1513807286

01:01

21-Дек-17

Аниме | Rips ·· Токийский гуль (ТВ-1) / Tokyo Ghoul [TV] [1 из 12] [без хардсаба] [RUS(int)] [2014, приключения, мистика, ужасы, сэйнэн, SATRip] Galfimbul 324992079310 MB 0 0 1512410524

21:02

4-Дек-17

Аниме | HD Rips ·· Токийский гуль / Tokyo Ghoul (Симада Сойти, Мацубаяси Тадахито) [OVA] [2 из 2] [без хардсаба] [RUS(ext), JAP+SUB] [2015, мистика, ужасы, драма, BDRemux] [1080p] Galfimbul 1655055526615.41 GB 0 0 1476652278

00:11

17-Окт-16

Аниме | HD Rips ·· Токийский гуль (ТВ-2) / Tokyo Ghoul Root A (Морита Сюхэй) [TV] [12 из 12] [без хардсаба] [RUS(ext), JAP+SUB] [2015 г., мистика, ужасы, BDRemux] [1080p] Galfimbul 8900495273882.89 GB 0 0 1476494832

04:27

15-Окт-16

Аниме | Rips ·· Токийский гуль / Tokyo Ghoul (Симада Сойти, Мацубаяси Тадахито) [OVA] [2 из 2] [без хардсаба] [RUS(ext),JAP+SUB] [2015 г., мистика, ужасы, драма, BDRip] [720p] Galfimbul 12244926521.14 GB 0 0 1472737224

16:40

1-Сен-16

Аниме | HD Rips ·· Токийский гуль / Tokyo Ghoul [OVA] [2 из 2] [Без хардсаба] [JAP, SUB] [2015 г., приключения, мистика, BDRip] [720p] Galfimbul 840345158801 MB 0 0 1455543714

16:41

15-Фев-16

Аниме | HD Rips ·· Токийский гуль / Tokyo Ghoul (Симада Сойти) [OVA] [1-2 из 2] [без хардсаба] [RUS(int), JAB+SUB] [2015 г., приключения, мистика, ужасы, BDRip] [1080p] Galfimbul 19853491481.85 GB 0 0 1452893256

00:27

16-Янв-16

Аниме | HD Rips ·· Токийский гуль (ТВ-2) / Tokyo Ghoul Root A (Морита Сюхэй) [TV] [12 из 12] [без хардсаба] [RUS(ext), JAP+SUB] [2015 г., мистика, ужасы, BDRip] [1080p] Galfimbul 2007463110718.7 GB 0 0 1449145892

15:31

3-Дек-15

Аниме | HD Rips ·· Токийский гуль / Tokyo Ghoul (Морита Сюхэй) [OVA] [1 из 2] [без хардсаба] [RUS(int), JAB+SUB] [2015 г., приключения, мистика, ужасы, BDRip] [1080p] Galfimbul 10606917431012 MB 0 0 1447454337

01:38

14-Ноя-15

Аниме | HD Rips ·· Токийский гуль (ТВ-2) / Tokyo Ghoul Root A (Морита Сюхэй) [TV] [12 из 12] [без хардсаба] [RUS(ext), JAP+SUB] [2015 г., мистика, ужасы, BDRip] [720p] Galfimbul 90467080578.43 GB 0 0 1444859152

00:45

15-Окт-15

Аниме | Rips ·· Токийский Гуль (ТВ-2) / Tokyo Ghoul A [TV] [4 из 12] [Полухардсаб] [JAP+SUB] [2015 г. Триллер, ужасы, экшн, приключения, BDRip] Galfimbul 11817383671.1 GB 0 0 1431175574

15:46

9-Май-15

Аниме | HD Rips ·· Токийский гуль (ТВ-1) / Tokyo Ghoul (Морита Сюхэй) [TV] [12 из 12] [без хардсаба] [RUS(int),JAP+SUB] [2014 г., приключения, мистика, ужасы, BDRip] [1080p] Galfimbul 83621110697.79 GB 0 0 1428496932

15:42

8-Апр-15

Аниме | HD Rips ·· Токийский Гуль (ТВ-2) / Tokyo Ghoul A [TV] [1 из 12] [Без хардсаба] [JAP+SUB] [2015 г., Триллер, ужасы, экшн, приключения, BDRip] [1080p] Galfimbul 13326338611.24 GB 0 0 1428344177

21:16

6-Апр-15

Аниме | HD Rips ·· Токийский Гуль (ТВ-2) / Tokyo Ghoul A [TV] [1 из 12] [Без хардсаба] [JAP+SUB] [2015 г., Триллер, ужасы, экшн, приключения, BDRip] [720p] Galfimbul 436920801417 MB 0 0 1428252227

19:43

5-Апр-15

Еще никто не оставлял запись к записи скачать торрент Токийский гуль . Будь первым!

!Обратная связь