GraphicRiver - SevenSins Flyer Template | Алексей Завьялов | Catfish: The TV Show Season 7 Episode 17 s07e17

Скачать через торрент Падмавати Padmaavat Фильм бесплатно в хорошем качестве torrent

Скачивайте на UnionPeer.org фильмы через торрент без регистрации. Новинки кино в хорошем качестве через торрент. На UnionPeer.org можно скачать через торрент фильмы 2014 и 2015 годов. Самые новые фильмы.

Скачать торрент Падмавати Padmaavat бесплатно через .torrent фильм мультфильм сериал

Статистика раздачи
Размер:  11.73 GB   |    Зарегистрирован:  4 месяца 14 дней   |    .torrent скачан:  17 раз   |   
Раздают:  1  
   
загрузка...
 
Автор Сообщение

Galfimbul

avatar Galfimbul


Падмавати /Padmaavat

Год выхода: 2018
Жанр: Драма, мелодрама, история
Режиссер: Санджай Лила Бхансали
В ролях: Дипика Падукон, Ранвир Сингх, Шахид Капур, Адити Рао Хидари, Джим Сарбх, Анупурия Гоенка, Аниша Джоши, Раза Мурад, Манджит Сингх, Уджвал Чопра
О фильме: 1303 год. Могущественный султан Алауддин Хилджи, завоевавший половину Индии, поддается сладким речам изгнанного из Читторгарха бывшего королевского религиозного наставника, что его могущество только будет расти, если рядом с ним будет красавица Падмавати, жена правителя Раваны Сингха. С этого момента султан становится одержим идеей захватить Падмавати. Он приводит свои войска к стенам крепости Читторгарх и обещает её правителю не разрушать город, если тот отдаст ему собственную жену.

Страна: Индия
Студия: Bhansali Productions
Продолжительность: 02:42:54
Перевод: любительский (многоголосый)
Субтитры: русские (full, songs), английские (full)
Формат: MKV
Качество: WEB-DL 1080p
Видео: MPEG-4 AVC Video, 9651 kbps, 1920x816, 23.976 fps
Звук:
#1. Russian: Dolby Digital Audio, 2.0, 48 kHz, 192 kbps - Многоголосый (Selena)
#2. Hindi: Dolby Digital Audio, 2.0, 48 kHz, 192 kbps - Оригинал (Хинди)
Format : Matroska
Format version : Version 2
File size : 11.7 GiB
Duration : 2 h 42 min
Overall bit rate : 10.3 Mb/s
Movie name : Padmaavat (2018) WEB-DL 1080p
Encoded date : UTC 2018-04-05 10:27:00
Writing application : mkvmerge v4.9.1 ('Ich will') сборка от Jul 11 2011 23:53:15
Writing library : libebml v1.2.1 + libmatroska v1.1.1

Video
ID : 1
Format : AVC
Format/Info : Advanced Video Codec
Format profile : [email protected]
Format settings, CABAC : Yes
Format settings, RefFrames : 3 frames
Codec ID : V_MPEG4/ISO/AVC
Duration : 2 h 42 min
Bit rate : 9 651 kb/s
Width : 1 920 pixels
Height : 816 pixels
Display aspect ratio : 2.35:1
Frame rate mode : Constant
Frame rate : 23.976 (23976/1000) FPS
Color space : YUV
Chroma subsampling : 4:2:0
Bit depth : 8 bits
Scan type : Progressive
Bits/(Pixel*Frame) : 0.257
Stream size : 11.0 GiB (94%)
Title : Падмавати / Padmaavat (2018)
Language : Hindi
Default : Yes
Forced : No

Audio #1
ID : 2
Format : AC-3
Format/Info : Audio Coding 3
Format settings, Endianness : Big
Codec ID : A_AC3
Duration : 2 h 42 min
Bit rate mode : Constant
Bit rate : 224 kb/s
Channel(s) : 2 channels
Channel positions : Front: L R
Sampling rate : 48.0 kHz
Frame rate : 31.250 FPS (1536 SPF)
Bit depth : 16 bits
Compression mode : Lossy
Delay relative to video : -200 ms
Stream size : 261 MiB (2%)
Title : Многоголосый (Selena)
Language : Russian
Service kind : Complete Main
Default : Yes
Forced : No

Audio #2
ID : 3
Format : AC-3
Format/Info : Audio Coding 3
Format settings, Endianness : Big
Codec ID : A_AC3
Duration : 2 h 42 min
Bit rate mode : Constant
Bit rate : 224 kb/s
Channel(s) : 2 channels
Channel positions : Front: L R
Sampling rate : 48.0 kHz
Frame rate : 31.250 FPS (1536 SPF)
Bit depth : 16 bits
Compression mode : Lossy
Delay relative to video : -200 ms
Stream size : 261 MiB (2%)
Title : Оригинал (Хинди)
Language : Hindi
Service kind : Complete Main
Default : No
Forced : No

Text #1
ID : 4
Format : UTF-8
Codec ID : S_TEXT/UTF8
Codec ID/Info : UTF-8 Plain Text
Title : Songs
Language : Russian
Default : Yes
Forced : No

Text #2
ID : 5
Format : UTF-8
Codec ID : S_TEXT/UTF8
Codec ID/Info : UTF-8 Plain Text
Title : Full
Language : Russian
Default : No
Forced : No

Text #3
ID : 6
Format : UTF-8
Codec ID : S_TEXT/UTF8
Codec ID/Info : UTF-8 Plain Text
Title : Full
Language : English
Default : No
Forced : No
Источник http://blator.org

Трекер:  [ 05-Апр-2018 14:00 ]

  

Скачать .torrent

Размер .torrent файла 59 KB


Размер: 11.73 GB
Хэш (hash) релиза: 31789c0967771b331a07f227d5bad11dbd6fdb9a
Подписка на обновления:

Еще никто не оставлял запись к записи скачать торрент Падмавати Padmaavat . Будь первым!

!Обратная связь