Первому игроку приготовиться | Seishun Tantei Haruya | Oglądaj

Скачать через торрент Токийский гуль ТВ-3 Tokyo Ghoul: Re бесплатно Аниме Все серии на русском torrent

Статистика раздачи
Размер:  327 MB   |    Зарегистрирован:  3 месяца 13 дней   |    .torrent скачан:  20 раз   |   
Раздают:  1  
   
загрузка...
 
Автор Сообщение

bot

avatar bot


Токийский гуль ТВ-3 / Tokyo Ghoul: Re

Год выпуска: 2018
Жанр: Фантастика, приключения
Страна: Япония
Тип: HDTV
Продолжительность: 12 серий ~ 24 мин
Дата выпуска: c 03.04.2018
Режиссер: Ватанабэ Одахиро
Автор оригинала / Сценарист: Исида Суи
Озвучено: JAM, Oriko

Студия: Studio Pierrot
Аудио: AAC 48000Hz stereo 192kbps [A: English [eng] (aac lc, 48000 Hz, stereo, 192 kb/s)]
Видео: MPEG4 Video (H264) 1280x720 23.976fps 1652kbps [V: Alias Data Handler [eng] (h264 main L3.2, yuv420p, 1280x720, 1652 kb/s)]


General
Complete name : \[JAM_CLUB]_Tokyo_Ghoul_Re_01_[720p][DUB].mp4
Format : MPEG-4
Format profile : Base Media
Codec ID : isom (isom)
File size : 327 MiB
Duration : 24 min 46 s
Overall bit rate mode : Variable
Overall bit rate : 1 847 kb/s
Encoded date : UTC 2018-04-03 18:14:23
Tagged date : UTC 2018-04-03 18:14:23
Writing application : Yamb 2.1.0.0

Video
ID : 1
Format : AVC
Format/Info : Advanced Video Codec
Format profile : [email protected]
Format settings, CABAC : Yes
Format settings, RefFrames : 3 frames
Codec ID : avc1
Codec ID/Info : Advanced Video Coding
Duration : 24 min 44 s
Bit rate : 1 652 kb/s
Maximum bit rate : 9 209 kb/s
Width : 1 280 pixels
Height : 720 pixels
Display aspect ratio : 16:9
Frame rate mode : Constant
Frame rate : 23.976 (24000/1001) FPS
Standard : NTSC
Color space : YUV
Chroma subsampling : 4:2:0
Bit depth : 8 bits
Scan type : Progressive
Bits/(Pixel*Frame) : 0.075
Stream size : 292 MiB (89%)
Language : English
Encoded date : UTC 2018-04-03 21:26:53
Tagged date : UTC 2018-04-03 18:14:31
Color range : Limited
Color primaries : BT.709
Transfer characteristics : BT.709
Matrix coefficients : BT.709

Audio
ID : 2
Format : AAC
Format/Info : Advanced Audio Codec
Format profile : LC
Codec ID : 40
Duration : 24 min 46 s
Bit rate mode : Variable
Bit rate : 192 kb/s
Maximum bit rate : 200 kb/s
Channel(s) : 2 channels
Channel positions : Front: L R
Sampling rate : 48.0 kHz
Frame rate : 46.875 FPS (1024 SPF)
Compression mode : Lossy
Stream size : 34.0 MiB (10%)
Language : English
Encoded date : UTC 2018-04-03 18:14:31
Tagged date : UTC 2018-04-03 18:14:31


Описание:Продолжение истории

Трекер:  [ 05-Апр-2018 12:18 ]

  

Скачать .torrent

Размер .torrent файла 3 KB


Размер: 327 MB
Хэш (hash) релиза: de30379ceda49c450d6d82edc577b6b1374785d2
Подписка на обновления:

Торренты, похожие на Токийский гуль ТВ-3 Tokyo Ghoul: Re скачать торрент

Форум Название Автор Размер S L Добавлен
Аниме | HD Rips ·· Токийский гуль (ТВ-3) / Tokyo Ghoul:re [TV] [1 из 12] [Без хардсаба] [RUS(int)] [2018, приключения, мистика, ужасы, сэйнэн, WEBRip] [1080p] Galfimbul 591239131564 MB 0 0 1522938609

17:30

5-Апр-18

Еще никто не оставлял запись к записи скачать торрент Токийский гуль ТВ-3 Tokyo Ghoul: Re . Будь первым!

!Обратная связь