Global Talk Show Cosmopolitan | Say I Love You (Cantonese) - 勇敢說出我愛你Say I Love You (Cantonese) | Torrents du jour

Скачать через торрент О чём говорят мужчины. Продолжение Фильм бесплатно в хорошем качестве torrent

Скачивайте на UnionPeer.org фильмы через торрент без регистрации. Новинки кино в хорошем качестве через торрент. На UnionPeer.org можно скачать через торрент фильмы 2014 и 2015 годов. Самые новые фильмы.

Скачать торрент О чём говорят мужчины. Продолжение бесплатно через .torrent фильм мультфильм сериал

Статистика раздачи
Размер:  1.46 GB   |    Зарегистрирован:  3 месяца 16 дней   |    .torrent скачан:  382 раза   |   
Раздают:  3  
   
загрузка...
 
Автор Сообщение

Galfimbul

avatar Galfimbul


О чём говорят мужчины. Продолжение

Страна: Россия
Жанр: комедия
Год выпуска: 2018
Продолжительность: 01:34:37
Субтитры: нет
Режиссер: Флюза Фархшатова
В ролях: Леонид Барац, Александр Демидов, Камиль Ларин, Ростислав Хаит, Алексей Барабаш, Елена Подкаминская, Татьяна Догилева, Леонид Каневский, Кристина Бабушкина, Михаил Прохоров
Описание: На этот раз Леша, Слава, Камиль и Саша едут в Питер. Причём трое из четверых даже не знают, зачем они туда едут. Но в какой-то момент становится понятно, что неважно — зачем. Важно, что едут. И, конечно, плохо, что дома осталась куча нерешённых проблем, но как же хорошо, что про них можно не думать… хотя бы до понедельника. И ещё, конечно, плохо, что отстали от «Сапсана» и пришлось ехать в плацкарте, но как же это неожиданно хорошо… и уютно. А ещё неожиданно хорошо бывает выпить в пять утра текилу-бум. Вроде рано… но так вовремя! А как это вдохновляет на всякие свершения!
Качество видео: WEB-DLRip
Формат видео: AVI

Видео: 704x384 (1.83:1), 25 fps, XviD build 73 ~1816 kbps avg, 0.27 bit/pixel
Аудио: 48 kHz, AC3 Dolby Digital, 3/2 (L,C,R,l,r) + LFE ch, ~384 kbps
Сэмпл
Format                      : AVI
Format/Info                 : Audio Video Interleave
File size                   : 1.46 GiB
Duration                    : 1 h 34 min
Overall bit rate            : 2 211 kb/s
Writing application         : VirtualDubMod 1.5.10.2 (build 2540/release)
Writing library             : VirtualDubMod build 2540/release

Video
ID                          : 0
Format                      : MPEG-4 Visual
Format profile              : Advanced [email protected]
Format settings             : BVOP1 / Custom Matrix
Format settings, BVOP       : 1
Format settings, QPel       : No
Format settings, GMC        : No warppoints
Format settings, Matrix     : Custom
Codec ID                    : XVID
Codec ID/Hint               : XviD
Duration                    : 1 h 34 min
Bit rate                    : 1 817 kb/s
Width                       : 704 pixels
Height                      : 384 pixels
Display aspect ratio        : 1.85:1
Frame rate                  : 25.000 FPS
Color space                 : YUV
Chroma subsampling          : 4:2:0
Bit depth                   : 8 bits
Scan type                   : Progressive
Compression mode            : Lossy
Bits/(Pixel*Frame)          : 0.269
Stream size                 : 1.20 GiB (82%)
Writing library             : XviD 73

Audio
ID                          : 1
Format                      : AC-3
Format/Info                 : Audio Coding 3
Codec ID                    : 2000
Duration                    : 1 h 34 min
Bit rate mode               : Constant
Bit rate                    : 384 kb/s
Channel(s)                  : 6 channels
Channel positions           : Front: L C R, Side: L R, LFE
Sampling rate               : 48.0 kHz
Frame rate                  : 31.250 FPS (1536 SPF)
Bit depth                   : 16 bits
Compression mode            : Lossy
Stream size                 : 260 MiB (17%)
Alignment                   : Split accross interleaves
Interleave, duration        : 40  ms (1.00 video frame)
Interleave, preload duratio : 500  ms
Service kind                : Complete Main


Трекер:  [ 05-Апр-2018 05:54 ]

  

Скачать .torrent

Размер .torrent файла 15 KB


Размер: 1.46 GB
Хэш (hash) релиза: bd4d5c6fd55511ed3cea4c57baf97e7f66d7524f
Подписка на обновления:

Еще никто не оставлял запись к записи скачать торрент О чём говорят мужчины. Продолжение . Будь первым!

!Обратная связь