American Public Education - 1564 Words
துப்பறிவாளன்

Скачать через торрент Повторная жизнь: Заключительная глава Relife: Kanketsu-hen бесплатно Аниме Все серии на русском torrent

Статистика раздачи
Размер:  4.75 GB   |    Зарегистрирован:  15 дней   |    .torrent скачан:  22 раза   |   
Раздают:  1  
   
загрузка...
 
Автор Сообщение

Galfimbul

avatar Galfimbul



Год выпуска: 2018 | Страна: Япония
Жанр: романтика, комедия, повседневность
Продолжительность: ОВА, 4 эп. по 25 мин.
Перевод: субтитры от YakuSub Studio
переводчик: Nika_Elrik, редактор: Red-blue_heart, Yukigawa
+english subtitles by Crunchyroll
Режиссер: Косака Сатору

Студия:
Описание: Прямое продолжение сериала. Ребята учатся уже на третьем семестре. Отношения между ними становятся интереснее, ведь Чизуру пришло в голову кое-что любопытное...
AniDB World Art MAL
Качество: BDRip | Рип: Jensen [Beatrice-Raws]
Тип релиза: без хардсаба, без линковки
Формат видео: MKV
Видео: x264, Hi10P, 1920x1080, 23.976fps, 5437 Kbps
Аудио JAP: FLAC, 48.0 kHz, 2.0 ch, 24 bit, 1300 Kbps
GeneralUnique ID : 136994449221488265029099544194536356250 (0x67102BD391E34EEF6CD5D9D5BCBEB99A)Complete name : u:\anime end\[Beatrice-Raws] ReLIFE Kanketsu-hen (OVA) [BDRip 1920x1080 x264 FLAC]\[Beatrice-Raws] ReLIFE Kanketsu-hen (OVA) 01 [BDRip 1920x1080 x264 FLAC].mkvFormat : MatroskaFormat version : Version 4 / Version 2File size : 1.11 GiBDuration : 23 min 42 sOverall bit rate mode : VariableOverall bit rate : 6 735 kb/sEncoded date : UTC 2018-04-04 20:44:09Writing application : mkvmerge v22.0.0 ('At The End Of The World') 64-bitWriting library : libebml v1.3.5 + libmatroska v1.4.8

VideoID : 1Format : AVCFormat/Info : Advanced Video CodecFormat profile : High [email protected] settings : CABAC / 4 Ref FramesFormat settings, CABAC : YesFormat settings, RefFrames : 4 framesCodec ID : V_MPEG4/ISO/AVCDuration : 23 min 42 sBit rate : 5 437 kb/sWidth : 1 920 pixelsHeight : 1 080 pixelsDisplay aspect ratio : 16:9Frame rate mode : ConstantFrame rate : 23.976 (24000/1001) FPSColor space : YUVChroma subsampling : 4:2:0Bit depth : 10 bitsScan type : ProgressiveBits/(Pixel*Frame) : 0.109Stream size : 922 MiB (81%)Title : BDrip by JensenWriting library : x264 core 152 r2851 ba24899 (DJATOM's build)Encoding settings : cabac=1 / ref=4 / deblock=1:1:-1 / analyse=0x3:0x113 / me=umh / subme=9 / psy=1 / psy_rd=1.00:0.00 / mixed_ref=1 / me_range=32 / chroma_me=1 / trellis=2 / 8x8dct=1 / cqm=0 / deadzone=21,11 / fast_pskip=1 / chroma_qp_offset=-2 / threads=34 / lookahead_threads=5 / sliced_threads=0 / nr=0 / decimate=1 / interlaced=0 / bluray_compat=0 / constrained_intra=0 / bframes=9 / b_pyramid=2 / b_adapt=2 / b_bias=0 / direct=1 / weightb=1 / open_gop=0 / weightp=2 / keyint=240 / keyint_min=23 / scenecut=40 / intra_refresh=0 / rc=crf / mbtree=0 / crf=15.0000 / qcomp=0.72 / qpmin=0 / qpmax=81 / qpstep=4 / ip_ratio=1.40 / pb_ratio=1.30 / aq=1:0.85Language : JapaneseDefault : YesForced : NoColor range : LimitedColor primaries : BT.709Transfer characteristics : BT.709Matrix coefficients : BT.709

AudioID : 2Format : FLACFormat/Info : Free Lossless Audio CodecCodec ID : A_FLACDuration : 23 min 42 sBit rate mode : VariableBit rate : 1 296 kb/sChannel(s) : 2 channelsChannel positions : Front: L RSampling rate : 48.0 kHzFrame rate : 11.719 FPS (4096 SPF)Bit depth : 24 bitsStream size : 220 MiB (19%)Writing library : libFLAC 1.3.1 (UTC 2014-11-25)Language : JapaneseDefault : YesForced : No

Menu00:00:00.000 : en:Avant00:01:19.037 : en:OP00:02:49.044 : en:Part A00:12:22.033 : en:Part B00:19:59.407 : en:ED00:22:08.911 : en:Part C00:23:25.029 : en:Next
1. Seed // Начало
2. Need // След
3. Date // Свидание
4. Life // Жизнь


Трекер:  [ 05-Апр-2018 05:30 ]

  

Скачать .torrent

Размер .torrent файла 97 KB


Размер: 4.75 GB
Хэш (hash) релиза: 3dc03e2e3bb72d404e86e498c23bd53a423f2ab4
Подписка на обновления:

Торренты, похожие на Повторная жизнь: Заключительная глава Relife: Kanketsu-hen скачать торрент

Форум Название Автор Размер S L Добавлен
Аниме | HD Rips ·· Повторная жизнь: Заключительная глава / Relife: Kanketsu-hen [OVA] [Без хардсаба] [4 из 4] [JAP+SUB] [2018, романтика, комедия, повседневность, BDRip] [720p] Galfimbul 837847698799 MB 0 0 1522283408

03:30

29-Мар-18

Еще никто не оставлял запись к записи скачать торрент Повторная жизнь: Заключительная глава Relife: Kanketsu-hen . Будь первым!

!Обратная связь