Push The Feeling (Selekio In Da House Dub) (2).wav
The Fall

Скачать через торрент Мазингер Зет против Человека-дьявола Mazinger Z vs. Devilman бесплатно Аниме Все серии на русском torrent

Статистика раздачи
Размер:  602 MB   |    Зарегистрирован:  22 дня   |    .torrent скачан:  18 раз   |   
Раздают:  1  
   
загрузка...
 
Автор Сообщение

Galfimbul

avatar Galfimbul


Мазингер Зет против Человека-дьявола / Mazinger Z vs. Devilman

Страна: Япония
Год выпуска: 1973
Жанр: приключения, фантастика, меха
Тип: Movie
Продолжительность: 45 мин
Режиссер: Кацумата Томохару
Студия: TOEI ANIMATION

Описание: На базу мазингера нападают механические звери, он отбивает атаку. Но из-за махача вдруг разверзается земля и появляется Серена, одна из демонов. Пролетая через город ее замечает Акура и как "тру сталкер" превращается в человека-дьявола и начинает преслодовать демонесу. Но кроме "сталкера" человека-дьявола за ней следил еще и доктор Хел, который знает что когда-то существовало племя демонов и он хочет найти их, что-бы они помогли ему уничтожить мазингера.

Качество: DVDRip
Формат видео: MKV
Совместимость с бытовыми плеерами: Нет
Видео: 1280x536, 1 777 Кбит/сек, 23.976 кадр/сек, High [email protected] (10 бит)
Аудио: 120 Кбит/сек, 48 kHz, 2 канала, Vorbis Язык Русский (в составе контейнера) ; Озвучка: Kallaider (муж., одноголосая); Группа: OldFQ
Аудио 2: 120 Кбит/сек, 48 КГц, 2 канала, Vorbis Язык Японский
Субтитры: встроенные отключаемые Язык субтитров английский ; тип: ASS ; Перевод: m74 ; Оформление: m74
GeneralUnique ID : 307439937013978760479850537598178516609 (0xE74AC7303917327A44DE88A6A8A75E81)Complete name : [OldFQ] Mazinger Z vs. Devilman.mkvFormat : MatroskaFormat version : Version 4 / Version 2File size : 602 MiBDuration : 42mn 58sOverall bit rate mode : VariableOverall bit rate : 1 959 KbpsEncoded date : UTC 2018-04-04 07:13:47Writing application : mkvmerge v8.8.0 ('Wind at my back') 64bitWriting library : libebml v1.3.3 + libmatroska v1.4.4Attachments : Gyosho.ttf

VideoID : 1Format : AVCFormat/Info : Advanced Video CodecFormat profile : High [email protected] settings, CABAC : YesFormat settings, ReFrames : 12 framesCodec ID : V_MPEG4/ISO/AVCDuration : 42mn 58sBit rate : 1 777 KbpsWidth : 1 280 pixelsHeight : 536 pixelsDisplay aspect ratio : 2.40:1Frame rate mode : ConstantFrame rate : 23.976 (24000/1001) fpsColor space : YUVChroma subsampling : 4:2:0Bit depth : 10 bitsScan type : ProgressiveBits/(Pixel*Frame) : 0.108Stream size : 546 MiB (91%)Title : Mazinger Z vs. Devilman 1Writing library : x264 core 146 r2538 121396cEncoding settings : cabac=1 / ref=12 / deblock=1:0:0 / analyse=0x3:0x133 / me=umh / subme=10 / psy=1 / psy_rd=0.80:0.00 / mixed_ref=1 / me_range=24 / chroma_me=1 / trellis=2 / 8x8dct=1 / cqm=0 / deadzone=21,11 / fast_pskip=1 / chroma_qp_offset=-2 / threads=12 / lookahead_threads=2 / sliced_threads=0 / nr=0 / decimate=1 / interlaced=0 / bluray_compat=0 / constrained_intra=0 / bframes=8 / b_pyramid=2 / b_adapt=2 / b_bias=0 / direct=3 / weightb=1 / open_gop=0 / weightp=2 / keyint=240 / keyint_min=23 / scenecut=40 / intra_refresh=0 / rc_lookahead=60 / rc=crf / mbtree=1 / crf=19.0 / qcomp=0.60 / qpmin=0 / qpmax=81 / qpstep=4 / vbv_maxrate=62500 / vbv_bufsize=78125 / crf_max=0.0 / nal_hrd=none / filler=0 / ip_ratio=1.40 / aq=1:1.00Language : JapaneseDefault : YesForced : No

Audio #1ID : 2Format : VorbisFormat settings, Floor : 1Codec ID : A_VORBISDuration : 42mn 58sBit rate mode : VariableBit rate : 120 KbpsChannel(s) : 2 channelsSampling rate : 48.0 KHzFrame rate : 56.940 fps (843 spf)Compression mode : LossyStream size : 23.6 MiB (4%)Title : rus audio (Kallaider)Writing application : Lavc56.60.100 libvorbisWriting library : Lavf56.40.101Language : RussianDefault : YesForced : No

Audio #2ID : 3Format : VorbisFormat settings, Floor : 1Codec ID : A_VORBISDuration : 42mn 58sBit rate mode : VariableBit rate : 120 KbpsChannel(s) : 2 channelsSampling rate : 48.0 KHzFrame rate : 58.660 fps (818 spf)Compression mode : LossyStream size : 31.0 MiB (5%)Title : Japanese, 5.1 AC3Writing application : Lavc56.60.100 libvorbisWriting library : Lavf56.40.101Language : JapaneseDefault : NoForced : No

Text #1ID : 4Format : ASSCodec ID : S_TEXT/ASSCodec ID/Info : Advanced Sub Station AlphaDuration : 4s 580msBit rate : 87.9 KbpsCount of elements : 437Compression mode : LosslessStream size : 49.2 KiB (0%)Title : introLanguage : RussianDefault : YesForced : Yes

Text #2ID : 5Format : ASSCodec ID : S_TEXT/ASSCodec ID/Info : Advanced Sub Station AlphaDuration : 42mn 53sBit rate : 85 bpsCount of elements : 541Compression mode : LosslessStream size : 26.8 KiB (0%)Language : EnglishDefault : NoForced : No


Трекер:  [ 04-Апр-2018 10:30 ]

  

Скачать .torrent

Размер .torrent файла 24 KB


Размер: 602 MB
Хэш (hash) релиза: a91a7a436ba82226ac727361f503ecefd1a90cea
Подписка на обновления:

Еще никто не оставлял запись к записи скачать торрент Мазингер Зет против Человека-дьявола Mazinger Z vs. Devilman . Будь первым!

!Обратная связь