Centurions | Ein Grieche erobert Chicago | Der König von St. Pauli

Скачать через торрент Бэтмен: Готэм в газовом свете Batman: Gotham by Gaslight Фильм бесплатно в хорошем качестве torrent

Скачивайте на UnionPeer.org фильмы через торрент без регистрации. Новинки кино в хорошем качестве через торрент. На UnionPeer.org можно скачать через торрент фильмы 2014 и 2015 годов. Самые новые фильмы.

Скачать торрент Бэтмен: Готэм в газовом свете Batman: Gotham by Gaslight бесплатно через .torrent фильм мультфильм сериал

Статистика раздачи
Размер:  10.61 GB   |    Зарегистрирован:  2 месяца 21 день   |    .torrent скачан:  32 раза   |   
Раздают:  1  
   
загрузка...
 
Автор Сообщение

Galfimbul

avatar Galfimbul


Бэтмен: Готэм в газовом свете / Batman: Gotham by Gaslight

Страна: США.
Жанр: Мультфильм, фантастика, боевик, приключения.
Продолжительность: 01:17:04
Год выпуска: 2018.
Перевод: Любительский (многоголосый закадровый) Saint Sound TV
.
Русские субтитры: Есть.
Режиссёр: Сэм Лью / Sam Liu.
Роли озвучивали: Дженнифер Карпентер, Тара Стронг, Брюс Гринвуд, Скотт Гордон-Паттерсон, Кари Вурер, Грэй ДеЛисл, Джон Ди Маджио, Энтони Хэд, Линкольн Мелчер, Юрий Ловенталь.

Описание: альтернативной истории, в 1889 году, Брюс Уэйн возвращается в Готэм из своего путешествия по Европе. Город викторианской эпохи всё так же привлекает преступников. Череда загадочных и зверских убийств заставляет жителей подозревать, что убийца — Бэтмен. Тёмному Рыцарю бросает вызов самый известный маньяк XIX века — Джек-потрошитель.

General
Unique ID : 131851386483281806519139018243075760399 (0x6331A741889709C6309D0DF03C50610F)
Complete name : G:\Bobropandavar\Batman Gotham by Gaslight (2018) BDRemux 1080p Bobropandavar.mkv
Format : Matroska
Format version : Version 4 / Version 2
File size : 10.6 GiB
Duration : 1 h 17 min
Overall bit rate mode : Variable
Overall bit rate : 19.7 Mb/s
Encoded date : UTC 2018-04-03 13:09:10
Writing application : mkvmerge v22.0.0 ('At The End Of The World') 64-bit
Writing library : libebml v1.3.5 + libmatroska v1.4.8

Video
ID : 1
Format : AVC
Format/Info : Advanced Video Codec
Format profile : [email protected]
Format settings : CABAC / 4 Ref Frames
Format settings, CABAC : Yes
Format settings, ReFrames : 4 frames
Codec ID : V_MPEG4/ISO/AVC
Duration : 1 h 17 min
Bit rate mode : Variable
Bit rate : 15.0 Mb/s
Maximum bit rate : 35.0 Mb/s
Width : 1 920 pixels
Height : 1 080 pixels
Display aspect ratio : 16:9
Frame rate mode : Constant
Frame rate : 23.976 (24000/1001) FPS
Color space : YUV
Chroma subsampling : 4:2:0
Bit depth : 8 bits
Scan type : Progressive
Bits/(Pixel*Frame) : 0.301
Stream size : 8.05 GiB (76%)
Default : Yes
Forced : No

Audio #1
ID : 2
Format : DTS
Format/Info : Digital Theater Systems
Format profile : MA / Core
Codec ID : A_DTS
Duration : 1 h 17 min
Bit rate mode : Variable / Constant
Bit rate : 2 176 kb/s / 1 509 kb/s
Channel(s) : 6 channels
Channel positions : Front: L C R, Side: L R, LFE
Sampling rate : 48.0 kHz
Frame rate : 93.750 FPS (512 SPF)
Bit depth : 16 bits
Compression mode : Lossless / Lossy
Stream size : 1.17 GiB (11%)
Title : Saint Sound TV Russian
Language : Russian
Default : Yes
Forced : No

Audio #2
ID : 3
Format : DTS
Format/Info : Digital Theater Systems
Format profile : MA / Core
Codec ID : A_DTS
Duration : 1 h 17 min
Bit rate mode : Variable / Constant
Bit rate : 2 568 kb/s / 1 509 kb/s
Channel(s) : 6 channels
Channel positions : Front: L C R, Side: L R, LFE
Sampling rate : 48.0 kHz
Frame rate : 93.750 FPS (512 SPF)
Bit depth : 24 bits
Compression mode : Lossless / Lossy
Stream size : 1.38 GiB (13%)
Title : English
Language : English
Default : No
Forced : No

Text #1
ID : 4
Format : UTF-8
Codec ID : S_TEXT/UTF8
Codec ID/Info : UTF-8 Plain Text
Duration : 1 h 13 min
Bit rate : 104 b/s
Count of elements : 923
Stream size : 56.2 KiB (0%)
Title : Russian
Language : Russian
Default : No
Forced : No

Text #2
ID : 5
Format : UTF-8
Codec ID : S_TEXT/UTF8
Codec ID/Info : UTF-8 Plain Text
Duration : 1 h 16 min
Bit rate : 54 b/s
Count of elements : 861
Stream size : 30.4 KiB (0%)
Title : English
Language : English
Default : No
Forced : No

Text #3
ID : 6
Format : UTF-8
Codec ID : S_TEXT/UTF8
Codec ID/Info : UTF-8 Plain Text
Duration : 59 s 257 ms
Bit rate : 171 b/s
Count of elements : 18
Stream size : 1.24 KiB (0%)
Title : Russian Forced
Language : Russian
Default : Yes
Forced : No

Menu
00:00:00.000 : en:Chapter 1
00:13:23.177 : en:Chapter 2
00:21:15.315 : en:Chapter 3
00:33:37.890 : en:Chapter 4
00:45:00.864 : en:Chapter 5
00:53:28.872 : en:Chapter 6
01:04:41.002 : en:Chapter 7
01:14:02.271 : en:Chapter 8
Релиз:
Благодарности:
Спасибо Saint Sound за любезно предоставленные чистые голоса.
Андрей Стакионис, Полина Касаткина, Алексей Щегорский, Игорь Хрусталёв. Макс Фривинг, Луговский Александр, Велес Ксайев, Слава Бланк, Константин Кураев, Алеся Зеленко, Neziana и Семён Евсиков.

Качество: BDRemux 1080p
Формат: MKV
Видео кодек: AVC
Аудио кодек: DTS MA
Видео: 1920x1080 , 15 Mb/s / 23.976 fps / 16:9 / High Profile 4.1
Аудио 1: DTS-HD Master Audio / 5.1 / 48 kHz / 2176 kbps / 16-bit (DTS Core: 5.1 / 48 kHz / 1509 kbps / 16-bit) Saint Sound
Аудио 2: DTS-HD Master Audio / 5.1 / 48 kHz / 2568 kbps / 16-bit (DTS Core: 5.1 / 48 kHz / 1509 kbps / 24-bit) English
Субтитры: Русский, English, Русский (форсированные на песни).
Навигация по главам: 8 глав (не именных)

МОИ РАЗДАЧИ
НЕ ЗАБЫВАЕМ БЛАГОДАРИТЬ НАЖАТИЕМ КНОПОЧКИ "СПАСИБО"

Трекер:  [ 03-Апр-2018 23:01 ]

  

Скачать .torrent

Размер .torrent файла 27 KB


Размер: 10.61 GB
Хэш (hash) релиза: d990b23449e0b5099ffedf722425d25172ac585b
Подписка на обновления:

Торренты, похожие на Бэтмен: Готэм в газовом свете Batman: Gotham by Gaslight скачать торрент

Форум Название Автор Размер S L Добавлен
Мультфильмы до 2016 ·· Бэтмен: Готэм в газовом свете / Batman: Gotham by Gaslight (Сэм Лью / Sam Liu) [2018, США, мультфильм, фэнтези, боевик, криминал, детектив,, BDRip] MVO (Jaskier) Galfimbul 15657410561.46 GB 0 0 1523685704

09:01

14-Апр-18

Мультфильмы 2016-2018 (Новинки мультфильмов) ·· Бэтмен: Готэм в газовом свете / Batman: Gotham by Gaslight (Сэм Лью / Sam Liu) [2018, мультфильм, боевик, BDRip 1080p] Jaskier Galfimbul 39459520423.67 GB 0 0 1523589644

06:20

13-Апр-18

Мультфильмы 2016-2018 (Новинки мультфильмов) ·· Бэтмен: Готэм в газовом свете / Batman: Gotham by Gaslight (Сэм Лью / Sam Liu) [2018, мультфильм, боевик, BDRip 720p] Jaskier Galfimbul 22090650532.06 GB 0 0 1523589631

06:20

13-Апр-18

Мультфильмы 2016-2018 (Новинки мультфильмов) ·· Бэтмен: Готэм в газовом свете / Batman: Gotham by Gaslight (Сэм Лью / Sam Liu) [2018, мультфильм, боевик, HDRip] Jaskier Galfimbul 14736547841.37 GB 0 0 1523589619

06:20

13-Апр-18

Мультфильмы 2016-2018 (Новинки мультфильмов) ·· Бэтмен: Готэм в газовом свете / Batman: Gotham by Gaslight (Сэм Лью) [2018, США, мультфильм, фэнтези, боевик, криминал, детектив, WEBRip 720p] RusFilm Galfimbul 979235237934 MB 0 0 1521795631

12:00

23-Мар-18

Мультфильмы до 2016 ·· Бэтмен: Готэм в газовом свете / Batman: Gotham by Gaslight (Сэм Лью) [2018, США, мультфильм, фэнтези, боевик, криминал, детектив, BDRip 1080p] MVO (D1) + Original (Eng) Galfimbul 59806397435.57 GB 0 0 1518608185

14:36

14-Фев-18

Мультфильмы 2016-2018 (Новинки мультфильмов) ·· Бэтмен: Готэм в газовом свете / Batman: Gotham by Gaslight (Сэм Лью / Sam Liu) [2017, мультфильм, боевик, BDRip 1080p] D1production Galfimbul 59806397965.57 GB 0 0 1518327063

08:31

11-Фев-18

Мультфильмы 2016-2018 (Новинки мультфильмов) ·· Бэтмен: Готэм в газовом свете / Batman: Gotham by Gaslight (Сэм Лью / Sam Liu) [2017, мультфильм, боевик, BDRip 720p] D1production Galfimbul 36270769063.38 GB 0 0 1518327045

08:30

11-Фев-18

Мультфильмы до 2016 ·· Бэтмен: Готэм в газовом свете / Batman: Gotham by Gaslight (Сэм Лью / Sam Liu) [2017, мультфильм, боевик, Blu-Ray > DVD5 (Custom)] MVO + Original Eng + rus, eng sub Galfimbul 46577745924.34 GB 0 0 1518069992

09:06

8-Фев-18

Мультфильмы 2016-2018 (Новинки мультфильмов) ·· Бэтмен: Готэм в газовом свете / Batman: Gotham by Gaslight (Сэм Лью/Sam Liu) [2018, США, Мультфильм, фэнтези, боевик, криминал, детектив, WEBRip 720p] Flarrow Films Galfimbul 25713337782.39 GB 0 0 1517752250

16:50

4-Фев-18

Мультфильмы до 2016 ·· Бэтмен: Готэм в газовом свете / Batman: Gotham by Gaslight (Сэм Лью/Sam Liu) [2018, США, Мультфильм, фэнтези, боевик, криминал, детектив, BDRip 1080p] MVO + Rus Sub Galfimbul 31899675172.97 GB 0 0 1517679388

20:36

3-Фев-18

Мультфильмы до 2016 ·· Бэтмен: Готэм в Газовом Свете / Batman: Gotham by Gaslight (Сэм Лью) [2018, США, мультфильм, фэнтези, боевик, криминал, детектив, BDRip 1080p] Rus Sub Galfimbul 30787686322.87 GB 0 0 1516975586

17:06

26-Янв-18

Еще никто не оставлял запись к записи скачать торрент Бэтмен: Готэм в газовом свете Batman: Gotham by Gaslight . Будь первым!

!Обратная связь