Chapter 397 : How We Met | Documentary | Điểm mù (Phần 3)Blindspot (Season 3)HD-Vietsub | Tập 20/22 Phần 3 của Blindspot sẽ vẫn tiếp tục tập trung vào câu chuyện về đội FBI New York cùng Jane Doe – cô nàng bị phát hiện khỏa thân trên Quảng Trường Thời Đại với một đống hình xăm trên người liên kết mậ

Скачать через торрент Падмавати Padmaavat Фильм бесплатно в хорошем качестве torrent

Скачивайте на UnionPeer.org фильмы через торрент без регистрации. Новинки кино в хорошем качестве через торрент. На UnionPeer.org можно скачать через торрент фильмы 2014 и 2015 годов. Самые новые фильмы.

Скачать торрент Падмавати Padmaavat бесплатно через .torrent фильм мультфильм сериал

Статистика раздачи
Размер:  3.39 GB   |    Зарегистрирован:  1 месяц 24 дня   |    .torrent скачан:  93 раза   |   
Раздают:  1  
   
загрузка...
 
Автор Сообщение

Galfimbul

avatar Galfimbul


Падмавати / Padmaavat

Страна: Индия
Производство: Bhansali Productions, Viacom18 Motion Pictures
Год выпуска: 2018
Жанр: драма, мелодрама, история
Продолжительность: 02:42:54

Режиссер: Санджай Лила Бхансали
Авторы сценария: Пракаш Кападиа, Санджай Лила Бхансали

В ролях: Дипика Падукон, Ранвир Сингх, Шахид Капур, Адити Рао Хидари, Джим Сарбх, Анупурия Гоенка, Аниша Джоши, Раза Мурад, Манджит Сингх

Описание: 1303 год. Могущественный султан Алауддин Хилджи, завоевавший половину Индии, поддается сладким речам изгнанного из Читторгарха бывшего королевского религиозного наставника, что его могущество только будет расти, если рядом с ним будет красавица Падмавати, жена правителя Раваны Сингха. С этого момента султан становится одержим идеей захватить Падмавати. Он приводит свои войска к стенам крепости Читторгарх и обещает её правителю не разрушать город, если тот отдаст ему собственную жену...



Перевод: Любительский (многоголосый, закадровый) | FanStudio
Субтитры: русские (full + на песни)
Качество: WEB-DL 1080p
Формат: МКV
Видео кодек: AVC
Аудио кодек: МР3 | AAC
Видео: 1920x816 (2.35:1), 23.976 fps, MPEG-4 AVC ~2 209 kbps avg
Аудио №1: 48.0 kHz, MPEG Layer 3, 2 ch, ~320 kbps | RUS / FanStudio / 6 голосов
Аудио №2: 48.0 kHz, MPEG Layer 3, 2 ch, ~320 kbps | RUS / FanStudio / 5 голосов
Аудио №3: 44.1 kHz, Advanced Audio Codec LC, 2/0 (L,R) ch, ~126 kbps | HIN / хинди
Формат субтитров: UTF-8 Plain Text

Дата премьеры (мир): 25 января 2018

<span style="color:Green;">
General
General
Unique ID : 175873199659464925094512424563055258854 (0x844FF237CCB9229026DC26F87DEFECE6)
Complete name : Padmaavat.2018.Hindi.1080p.HD.x264.mkv
Format : Matroska
Format version : Version 4 / Version 2
File size : 3.39 GiB
Duration : 2h 42mn
Overall bit rate : 2 977 Kbps
Encoded date : UTC 2018-04-02 15:48:11
Writing application : mkvmerge v20.0.0 ('I Am The Sun') 64-bit
Writing library : libebml v1.3.5 + libmatroska v1.4.8
DURATION : 01:50:26.610000000
NUMBER_OF_FRAMES : 83
NUMBER_OF_BYTES : 6152
_STATISTICS_WRITING_APP : mkvmerge v20.0.0 ('I Am The Sun') 64-bit
_STATISTICS_WRITING_DATE_UTC : 2018-04-02 15:48:11
_STATISTICS_TAGS : BPS DURATION NUMBER_OF_FRAMES NUMBER_OF_BYTES

Video
ID : 1
Format : AVC
Format/Info : Advanced Video Codec
Format profile : [email protected]
Format settings, CABAC : Yes
Format settings, ReFrames : 2 frames
Codec ID : V_MPEG4/ISO/AVC
Duration : 2h 42mn
Width : 1 920 pixels
Height : 816 pixels
Display aspect ratio : 2.35:1
Frame rate mode : Constant
Frame rate : 23.976 fps
Color space : YUV
Chroma subsampling : 4:2:0
Bit depth : 8 bits
Scan type : Progressive
Default : Yes
Forced : No
Color range : Limited
Color primaries : BT.709
Transfer characteristics : BT.709
Matrix coefficients : BT.709

Audio #1
ID : 2
Format : MPEG Audio
Format version : Version 1
Format profile : Layer 3
Mode : Joint stereo
Mode extension : MS Stereo
Codec ID : A_MPEG/L3
Codec ID/Hint : MP3
Duration : 2h 42mn
Bit rate mode : Constant
Bit rate : 320 Kbps
Channel(s) : 2 channels
Sampling rate : 48.0 KHz
Compression mode : Lossy
Stream size : 373 MiB (11%)
Title : FAN studio (С)
Writing library : LAME3.99r
Encoding settings : -m j -V 4 -q 5 -lowpass 20.5
Language : Russian
Default : Yes
Forced : No

Audio #2
ID : 3
Format : MPEG Audio
Format version : Version 1
Format profile : Layer 3
Mode : Joint stereo
Mode extension : MS Stereo
Codec ID : A_MPEG/L3
Codec ID/Hint : MP3
Duration : 2h 42mn
Bit rate mode : Constant
Bit rate : 320 Kbps
Channel(s) : 2 channels
Sampling rate : 48.0 KHz
Compression mode : Lossy
Stream size : 373 MiB (11%)
Title : FAN studio (Э)
Writing library : LAME3.99r
Encoding settings : -m j -V 4 -q 5 -lowpass 20.5
Language : Russian
Default : No
Forced : No

Audio #3
ID : 4
Format : AAC
Format/Info : Advanced Audio Codec
Format profile : LC
Codec ID : A_AAC
Duration : 2h 42mn
Channel(s) : 2 channels
Channel positions : Front: L R
Sampling rate : 44.1 KHz
Compression mode : Lossy
Delay relative to video : 85ms
Language : Hindi
Default : No
Forced : No

Text #1
ID : 5
Format : UTF-8
Codec ID : S_TEXT/UTF8
Codec ID/Info : UTF-8 Plain Text
Title : Песни
Language : Russian
Default : Yes
Forced : No

Text #2
ID : 6
Format : UTF-8
Codec ID : S_TEXT/UTF8
Codec ID/Info : UTF-8 Plain Text
Title : Полные
Language : Russian
Default : No
Forced : No
Источник http://yarutor.org

Трекер:  [ 03-Апр-2018 15:10 ]

  

Скачать .torrent

Размер .torrent файла 17 KB


Размер: 3.39 GB
Хэш (hash) релиза: 2717898d0ff84235ad6efab5614a41a81156eedd
Подписка на обновления:

Еще никто не оставлял запись к записи скачать торрент Падмавати Padmaavat . Будь первым!

!Обратная связь