Danny McBride | Grand Theft Auto V (5) | Carbon (2018)

Скачать через торрент Падмавати Padmaavat Фильм бесплатно в хорошем качестве torrent

Скачивайте на UnionPeer.org фильмы через торрент без регистрации. Новинки кино в хорошем качестве через торрент. На UnionPeer.org можно скачать через торрент фильмы 2014 и 2015 годов. Самые новые фильмы.

Скачать торрент Падмавати Padmaavat бесплатно через .torrent фильм мультфильм сериал

Статистика раздачи
Размер:  2.56 GB   |    Зарегистрирован:  1 месяц 24 дня   |    .torrent скачан:  117 раз   |   
Раздают:  1  
   
загрузка...
 
Автор Сообщение

Galfimbul

avatar Galfimbul


Падмавати / Padmaavat

Страна: Индия
Производство: Bhansali Productions, Viacom18 Motion Pictures
Год выпуска: 2018
Жанр: драма, мелодрама, история
Продолжительность: 02:42:00

Режиссер: Санджай Лила Бхансали
Авторы сценария: Пракаш Кападиа, Санджай Лила Бхансали

В ролях: Дипика Падукон, Ранвир Сингх, Шахид Капур, Адити Рао Хидари, Джим Сарбх, Анупурия Гоенка, Аниша Джоши, Раза Мурад, Манджит Сингх

Описание: 1303 год. Могущественный султан Алауддин Хилджи, завоевавший половину Индии, поддается сладким речам изгнанного из Читторгарха бывшего королевского религиозного наставника, что его могущество только будет расти, если рядом с ним будет красавица Падмавати, жена правителя Раваны Сингха. С этого момента султан становится одержим идеей захватить Падмавати. Он приводит свои войска к стенам крепости Читторгарх и обещает её правителю не разрушать город, если тот отдаст ему собственную жену...



Перевод: Любительский (многоголосый, закадровый) | Selena + Sunshine Studio + студия Райдо
Субтитры: английские, русские (full + на песни)
Качество: WEB-DL 720p
Формат: МКV
Видео кодек: AVC
Аудио кодек: АС3
Видео: 1280x544 (2.35:1), 23.976 fps, MPEG-4 AVC ~1 859 kbps avg
Аудио №1: 48.0 kHz, AC3 Dolby Digital, 2/0 (L,R) ch, ~192 kbps | HIN / хинди
Аудио №2: 48.0 kHz, AC3 Dolby Digital, 2/0 (L,R) ch, ~192 kbps | RUS / русский
Формат субтитров: UTF-8 Plain Text

Дата премьеры (мир): 25 января 2018

General
Unique ID : 193721900009627723077286569992106271748 (0x91BD7B1671943CE08AA3FDA948BBE404)
Complete name : Padmaavat.2018.720p.WEB-DL.H264.AC3(2.0)Sub.mkv
Format : Matroska
Format version : Version 4 / Version 2
File size : 2.56 GiB
Duration : 2 h 42 min
Overall bit rate : 2 248 kb/s
Movie name : Padmaavat - http://desitorrents.tv/
Writing application : XviD4PSP 7.0.448 DAILY
Writing library : Lavf57.71.100
ErrorDetectionType : Per level 1
ENCODING_INFO : MATROSKA,WEBM > MKV 720p / H264 > X264 CRF-2P 21.0 Medium / AAC-LC > AC3 CBR 192kbps / MP3 > AC3 CBR 192kbps

Video
ID : 1
Format : AVC
Format/Info : Advanced Video Codec
Format profile : [email protected]
Format settings : CABAC / 4 Ref Frames
Format settings, CABAC : Yes
Format settings, ReFrames : 4 frames
Codec ID : V_MPEG4/ISO/AVC
Duration : 2 h 42 min
Bit rate : 1 859 kb/s
Width : 1 280 pixels
Height : 544 pixels
Display aspect ratio : 2.35:1
Frame rate mode : Constant
Frame rate : 23.976 (24000/1001) FPS
Color space : YUV
Chroma subsampling : 4:2:0
Bit depth : 8 bits
Scan type : Progressive
Bits/(Pixel*Frame) : 0.111
Stream size : 2.07 GiB (81%)
Writing library : x264 core 155 r2901M 7d0ff22
Encoding settings : cabac=1 / ref=3 / deblock=1:-1:-1 / analyse=0x3:0x113 / me=hex / subme=7 / psy=1 / psy_rd=1.00:0.00 / mixed_ref=1 / me_range=16 / chroma_me=1 / trellis=1 / 8x8dct=1 / cqm=0 / deadzone=21,11 / fast_pskip=1 / chroma_qp_offset=-2 / threads=5 / lookahead_threads=1 / sliced_threads=0 / nr=0 / decimate=1 / interlaced=0 / bluray_compat=0 / constrained_intra=0 / bframes=3 / b_pyramid=2 / b_adapt=1 / b_bias=0 / direct=1 / weightb=1 / open_gop=0 / weightp=2 / keyint=240 / keyint_min=24 / scenecut=40 / intra_refresh=0 / rc_lookahead=40 / rc=2pass / mbtree=1 / bitrate=1859 / ratetol=1.0 / qcomp=0.60 / qpmin=0 / qpmax=69 / qpstep=4 / cplxblur=20.0 / qblur=0.5 / ip_ratio=1.40 / aq=1:1.00
Default : Yes
Forced : No

Audio #1
ID : 2
Format : AC-3
Format/Info : Audio Coding 3
Codec ID : A_AC3
Duration : 2 h 42 min
Bit rate mode : Constant
Bit rate : 192 kb/s
Channel(s) : 2 channels
Channel positions : Front: L R
Sampling rate : 48.0 kHz
Frame rate : 31.250 FPS (1536 SPF)
Bit depth : 16 bits
Compression mode : Lossy
Stream size : 224 MiB (9%)
Title : dtone
Language : Hindi
Service kind : Complete Main
Default : Yes
Forced : No

Audio #2
ID : 3
Format : AC-3
Format/Info : Audio Coding 3
Codec ID : A_AC3
Duration : 2 h 42 min
Bit rate mode : Constant
Bit rate : 192 kb/s
Channel(s) : 2 channels
Channel positions : Front: L R
Sampling rate : 48.0 kHz
Frame rate : 31.250 FPS (1536 SPF)
Bit depth : 16 bits
Compression mode : Lossy
Stream size : 224 MiB (9%)
Language : Russian
Service kind : Complete Main
Default : No
Forced : No

Text #1
ID : 4
Format : UTF-8
Codec ID : S_TEXT/UTF8
Codec ID/Info : UTF-8 Plain Text
Title : dtone
Language : English
Default : Yes
Forced : No

Text #2
ID : 5
Format : UTF-8
Codec ID : S_TEXT/UTF8
Codec ID/Info : UTF-8 Plain Text
Language : Russian
Default : No
Forced : No

Text #3
ID : 6
Format : UTF-8
Codec ID : S_TEXT/UTF8
Codec ID/Info : UTF-8 Plain Text
Language : Russian
Default : No
Forced : No
Источник http://yarutor.org

Трекер:  [ 03-Апр-2018 11:30 ]

  

Скачать .torrent

Размер .torrent файла 13 KB


Размер: 2.56 GB
Хэш (hash) релиза: e2a24a94bca5dbcad52939b4491c9473b6c6cce9
Подписка на обновления:

Еще никто не оставлял запись к записи скачать торрент Падмавати Padmaavat . Будь первым!

!Обратная связь