Float - Pulang
Naruto the Movie 2: Legend of the Stone of Gelel

Скачать через торрент Код Гиас: Восставший Лелуш Gekijou Soushuuhen Code Geass: Hangyaku no Lelouch бесплатно Аниме Все серии на русском torrent

Статистика раздачи
Размер:  1.74 GB   |    Зарегистрирован:  18 дней   |    .torrent скачан:  57 раз   |   
Раздают:  1  
   
загрузка...
 
Автор Сообщение

Galfimbul

avatar Galfimbul



Gekijou Soushuuhen Code Geass: Hangyaku no Lelouch
Страна: Япония
Год выпуска: 2017 г.
Жанр: приключения, фантастика, меха, драма
Тип: Movie
Продолжительность: 1 эп. 134 мин
Режиссер: Танигути Горо
Студия: Sunrise
Перевод:

русские субтитры: [SovetRomantica] (внешним файлом).
Переводчики: Nelfloo, Kuslik, Regis, Chamberlin, LiteSun, WolteR.
английские субтитры: [gg] (встроенные).



Описание: Фильмы-компиляции двух сезонов оригинального сериала с новыми сценами и измененным сюжетом.

Альтернативная реальность: Британская Империя захватила треть мира, обрушивая на непокорных мощь своей военной машины.
В Японии, захваченной и переименованной в «Зону 11», вместе с младшей сестрой живёт старшеклассник Лелуш – изгнанный сын Императора, потерявший мать и право на престол. Юноша отличается от сверстников не только происхождением – он весьма одарённая личность, только где применить эти способности? Неожиданно Лелуш оказывается вовлечён в столкновение между японскими террористами и британскими солдатами. Так он знакомится с загадочной девушкой «C.C.» Она дарует ему сверхъестественную способность «Гиасс», позволяющую подчинять себе волю других людей.
Скрыв своё лицо маской, под именем «Зеро» Лелуш присоединяется к подпольному движению, горя желанием отомстить Британии и отцу. Будучи студентом Академии Ашфорд, юноша вынужден вести двойную жизнь. Но не ему одному приходится скрывать своё лицо и свои подлинные цели от окружающих...



Качество: BDRip
Тип релиза: Без хардсаба
Формат видео: MKV
Наличие линковки: Нет
Релиз/Автор рипа: [gg]
Видео: x264, 1280x720, 1124 Kbps, 23.976 fps, 10 bit
Аудио: JAP, AAC, 720 kbps, 48000 Hz, 6ch
GeneralUnique ID : 283546616000761955304595270404789835152 (0xD5511782BB4064759E8FB5D55D6D1590)Complete name : D:\[gg]_Code_Geass_Episode_I_-_Koudou_[6D91F2F0].mkvFormat : MatroskaFormat version : Version 4 / Version 2File size : 1.74 GiBDuration : 2 h 14 minOverall bit rate : 1 847 kb/sMovie name : [gg] Code Geass Episode I - KoudouEncoded date : UTC 2018-03-15 07:43:13Writing application : mkvmerge v21.0.0 ('Tardigrades Will Inherit The Earth') 64-bitWriting library : libebml v1.3.5 + libmatroska v1.4.8Attachments : Roboto-Bold.ttf / segoeprb.ttf / bahnschrift.ttf / BUDHAND2.TTF / florastd-bold.otf / Kalam-Bold.ttf / OptimaLTStd-Bold.otf / OptimaLTStd-BoldItalic.otf

VideoID : 1Format : AVCFormat/Info : Advanced Video CodecFormat profile : High [email protected] settings : CABAC / 16 Ref FramesFormat settings, CABAC : YesFormat settings, ReFrames : 16 framesCodec ID : V_MPEG4/ISO/AVCDuration : 2 h 14 minBit rate : 1 124 kb/sWidth : 1 280 pixelsHeight : 720 pixelsDisplay aspect ratio : 16:9Frame rate mode : ConstantFrame rate : 23.976 (24000/1001) FPSColor space : YUVChroma subsampling : 4:2:0Bit depth : 10 bitsScan type : ProgressiveBits/(Pixel*Frame) : 0.051Stream size : 1.06 GiB (61%)Title : 720p H.264Writing library : x264 core 148 r2665 a01e339Encoding settings : cabac=1 / ref=16 / deblock=1:1:1 / analyse=0x3:0x133 / me=umh / subme=10 / psy=1 / psy_rd=0.70:0.10 / mixed_ref=1 / me_range=24 / chroma_me=1 / trellis=2 / 8x8dct=1 / cqm=0 / deadzone=21,11 / fast_pskip=1 / chroma_qp_offset=-3 / threads=22 / lookahead_threads=5 / sliced_threads=0 / nr=0 / decimate=1 / interlaced=0 / bluray_compat=0 / constrained_intra=0 / bframes=10 / b_pyramid=2 / b_adapt=2 / b_bias=0 / direct=3 / weightb=1 / open_gop=0 / weightp=2 / keyint=250 / keyint_min=23 / scenecut=40 / intra_refresh=0 / rc_lookahead=60 / rc=crf / mbtree=1 / crf=18.0 / qcomp=0.60 / qpmin=0 / qpmax=81 / qpstep=4 / ip_ratio=1.40 / aq=3:0.80Language : JapaneseDefault : YesForced : No

AudioID : 2Format : AACFormat/Info : Advanced Audio CodecFormat profile : LCCodec ID : A_AAC-2Duration : 2 h 14 minBit rate : 720 kb/sChannel(s) : 6 channelsChannel positions : Front: L C R, Side: L R, LFESampling rate : 48.0 kHzFrame rate : 46.875 FPS (1024 SPF)Compression mode : LossyStream size : 694 MiB (39%)Title : AACLanguage : JapaneseDefault : YesForced : No

TextID : 3Format : ASSCodec ID : S_TEXT/ASSCodec ID/Info : Advanced Sub Station AlphaDuration : 2 h 10 minBit rate : 150 b/sCount of elements : 2345Compression mode : LosslessStream size : 144 KiB (0%)Title : English (.ass)Language : EnglishDefault : YesForced : No

Menu00:00:00.000 : en:00:00:00.00000:04:41.114 : en:00:04:41.11400:06:12.038 : en:00:06:12.03800:13:57.837 : en:00:13:57.83700:22:26.887 : en:00:22:26.88700:41:50.842 : en:00:41:50.84200:51:48.105 : en:00:51:48.10501:07:12.946 : en:01:07:12.94601:18:03.262 : en:01:18:03.26201:25:15.610 : en:01:25:15.61001:41:15.653 : en:01:41:15.65301:53:07.155 : en:01:53:07.15502:00:01.569 : en:02:00:01.56902:09:40.481 : en:02:09:40.48102:10:52.845 : en:02:10:52.84502:14:27.810 : en:02:14:27.810
01 - The Awakening Path


Трекер:  [ 03-Апр-2018 01:01 ]

  

Скачать .torrent

Размер .torrent файла 18 KB


Размер: 1.74 GB
Хэш (hash) релиза: 9323db3b22196259fdc20bb70c9f333d1090018c
Подписка на обновления:

Еще никто не оставлял запись к записи скачать торрент Код Гиас: Восставший Лелуш Gekijou Soushuuhen Code Geass: Hangyaku no Lelouch . Будь первым!

!Обратная связь