For The First Time | Futakaku Kankei | Mafia Blues 2 : La rechute

Скачать через торрент Мартиросян Official Фильм бесплатно в хорошем качестве torrent

Скачивайте на UnionPeer.org фильмы через торрент без регистрации. Новинки кино в хорошем качестве через торрент. На UnionPeer.org можно скачать через торрент фильмы 2014 и 2015 годов. Самые новые фильмы.

Скачать торрент Мартиросян Official бесплатно через .torrent фильм мультфильм сериал

Статистика раздачи
Размер:  3.25 GB   |    Зарегистрирован:  3 месяца 19 дней   |    .torrent скачан:  30 раз   |   
Раздают:  1  
   
загрузка...
 
Автор Сообщение

Galfimbul

avatar Galfimbul


Мартиросян Official

Дата/Год выпуска: 01.04.2018
Страна: Россия
Жанр: ТВ-шоу, юмор
Продолжительность: 00:45:19
Перевод: Не требуется
Телеканал: ТНТ
Ведущий: Гарик Мартиросян

Описание: 1 апреля бывает раз в году. Комедийное шоу «Мартиросян Official» еще реже — раз в жизни. Всего на один вечер Гарик Мартиросян превратит зал «Барвиха Luxury Village» в съемочную площадку своего комедийного шоу. Зал, декорированный в тонах фукси, приглушенный свет, создающий мягкую домашнюю атмосферу. На сцене большой диван с подушечками и разместившиеся на нем звезды.

Без рекламы.

Качество: HDTV 1080i - 25Kuzmich
Формат: TS
Видео: 1920x1080 (16:9), 25 fps, ~9 567 kbps avg, 0.18 bit/pixel
Аудио: 48 kHz, MP2, 2 ch, ~192.00 kbps
GeneralID : 1 (0x1)Complete name : D:\Martirosyan_Official.(01.04.2018).HDTV(1080i).25Kuzmich.tsFormat : MPEG-TSFile size : 3.25 GiBDuration : 45mn 19sOverall bit rate mode : VariableOverall bit rate : 10.3 Mbps

VideoID : 207 (0xCF)Menu ID : 2207 (0x89F)Format : AVCFormat/Info : Advanced Video CodecFormat profile : [email protected] settings, CABAC : YesFormat settings, ReFrames : 4 framesCodec ID : 27Duration : 45mn 19sBit rate : 9 567 KbpsWidth : 1 920 pixelsHeight : 1 080 pixelsDisplay aspect ratio : 16:9Frame rate : 25.000 fpsStandard : ComponentColor space : YUVChroma subsampling : 4:2:0Bit depth : 8 bitsScan type : InterlacedScan order : Top Field FirstBits/(Pixel*Frame) : 0.185Stream size : 3.03 GiB (93%)Color primaries : BT.709Transfer characteristics : BT.709Matrix coefficients : BT.709

AudioID : 307 (0x133)Menu ID : 2207 (0x89F)Format : MPEG AudioFormat version : Version 1Format profile : Layer 2Codec ID : 3Duration : 45mn 19sBit rate mode : ConstantBit rate : 192 KbpsChannel count : 2 channelsSampling rate : 48.0 KHzCompression mode : LossyDelay relative to video : -80msStream size : 62.3 MiB (2%)Language : Russian


Трекер:  [ 02-Апр-2018 06:12 ]

  

Скачать .torrent

Размер .torrent файла 16 KB


Размер: 3.25 GB
Хэш (hash) релиза: 4e3c6076eca129d0b87abf93cfac522fdb9541b8
Подписка на обновления:

Торренты, похожие на Мартиросян Official скачать торрент

Форум Название Автор Размер S L Добавлен
Развлекательные телепередачи и шоу ·· Мартиросян Official [01.04.2018, ТВ-шоу, юмор, HDTVRip] Galfimbul 734535680701 MB 0 0 1522638732

06:12

2-Апр-18

Еще никто не оставлял запись к записи скачать торрент Мартиросян Official . Будь первым!

!Обратная связь