4.7 I Feel Pretty (2018) | Odyssee ins Traumland | Microsoft Windows

Скачать через торрент Мартиросян Official Фильм бесплатно в хорошем качестве torrent

Скачивайте на UnionPeer.org фильмы через торрент без регистрации. Новинки кино в хорошем качестве через торрент. На UnionPeer.org можно скачать через торрент фильмы 2014 и 2015 годов. Самые новые фильмы.

Скачать торрент Мартиросян Official бесплатно через .torrent фильм мультфильм сериал

Статистика раздачи
Размер:  701 MB   |    Зарегистрирован:  3 месяца 16 дней   |    .torrent скачан:  43 раза   |   
Раздают:  1  
   
загрузка...
 
Автор Сообщение

Galfimbul

avatar Galfimbul


Мартиросян Official

Дата/Год выпуска: 01.04.2018
Страна: Россия
Жанр: ТВ-шоу, юмор
Продолжительность: 00:45:19
Перевод: Не требуется
Телеканал: ТНТ
Ведущий: Гарик Мартиросян

Описание: 1 апреля бывает раз в году. Комедийное шоу «Мартиросян Official» еще реже — раз в жизни. Всего на один вечер Гарик Мартиросян превратит зал «Барвиха Luxury Village» в съемочную площадку своего комедийного шоу. Зал, декорированный в тонах фукси, приглушенный свет, создающий мягкую домашнюю атмосферу. На сцене большой диван с подушечками и разместившиеся на нем звезды.

Без рекламы.

Качество: HDTVRip
Формат: AVI
Видео: 720x400 (1.80:1), 25 fps, XviD build 50 ~1958 kbps avg, 0.27 bit/pixel
Аудио: 48 kHz, AC3 Dolby Digital, 2/0 (L,R) ch, ~192 kbps
GeneralComplete name : D:\Martirosyan Official (01.04.2018) HDTVRip.aviFormat : AVIFormat/Info : Audio Video InterleaveFile size : 701 MiBDuration : 45mn 19sOverall bit rate : 2 160 KbpsWriting application : VirtualDubMod 1.5.10.3 | www.virtualdub-fr.org || (build 2550/release)Writing library : VirtualDubMod build 2550/release

VideoID : 0Format : MPEG-4 VisualFormat profile : Advanced [email protected] settings, BVOP : 1Format settings, QPel : NoFormat settings, GMC : No warppointsFormat settings, Matrix : Default (MPEG)Codec ID : XVIDCodec ID/Hint : XviDDuration : 45mn 19sBit rate : 1 959 KbpsWidth : 720 pixelsHeight : 400 pixelsDisplay aspect ratio : 16:9Frame rate : 25.000 fpsColor space : YUVChroma subsampling : 4:2:0Bit depth : 8 bitsScan type : ProgressiveCompression mode : LossyBits/(Pixel*Frame) : 0.272Stream size : 635 MiB (91%)Writing library : XviD 1.2.1 (UTC 2008-12-04)

AudioID : 1Format : AC-3Format/Info : Audio Coding 3Mode extension : CM (complete main)Format settings, Endianness : BigCodec ID : 2000Duration : 45mn 19sBit rate mode : ConstantBit rate : 192 KbpsChannel count : 2 channelsChannel positions : Front: L RSampling rate : 48.0 KHzBit depth : 16 bitsCompression mode : LossyStream size : 62.3 MiB (9%)Alignment : Split accross interleavesInterleave, duration : 40 ms (1.00 video frame)Interleave, preload duration : 500 ms


Трекер:  [ 02-Апр-2018 06:12 ]

  

Скачать .torrent

Размер .torrent файла 14 KB


Размер: 701 MB
Хэш (hash) релиза: 83aa766011eab167b9fbfddd99d632e216b9d534
Подписка на обновления:

Торренты, похожие на Мартиросян Official скачать торрент

Форум Название Автор Размер S L Добавлен
Развлекательные телепередачи и шоу ·· Мартиросян Official [01.04.2018, ТВ-шоу, юмор, HDTV 1080i] Galfimbul 34910037723.25 GB 0 0 1522638742

06:12

2-Апр-18

Еще никто не оставлял запись к записи скачать торрент Мартиросян Official . Будь первым!

!Обратная связь