Редакторы видео ­и аудио | Télécharger Part 11 | The Hills

Скачать через торрент Со дна вершины Фильм бесплатно в хорошем качестве torrent

Скачивайте на UnionPeer.org фильмы через торрент без регистрации. Новинки кино в хорошем качестве через торрент. На UnionPeer.org можно скачать через торрент фильмы 2014 и 2015 годов. Самые новые фильмы.

Скачать торрент Со дна вершины бесплатно через .torrent фильм мультфильм сериал

Статистика раздачи
Размер:  4.35 GB   |    Зарегистрирован:  3 месяца 18 дней   |    .torrent скачан:  136 раз   |   
Раздают:  1  
   
загрузка...
 
Автор Сообщение

Galfimbul

avatar Galfimbul


Со дна вершины



[b]Год выхода:
2018
Жанр: драма, спорт
Режиссер: Яна Поляруш, Тамара Цоцория, Константин Кутуев
В ролях: Павел Шевандо, Владимир Вдовиченков, Ксения Кузнецова, Сергей Никоненко, Константин Белошапка, Наталья Бергер, Ирина Розанова, Сергей Пускепалис, Нонна Гришаева, Никита Салопин

О фильме:
Алексей Царёв — семнадцатилетний лидер школы и подающий большие надежды чемпион юношеской сборной по горным лыжам. У Алексея есть любимая девушка Лина и друг Костя, его соперник и в спорте, и в любви. Алексей — первый во всём. Он уверен в себе, не умеет и не желает проигрывать. Но всё меняется в один миг. После трагической случайности, которая происходит с Алексеем по вине Кости, их дружбе предстоит пройти проверку на прочность. Но сила духа, добро и любовь помогут перенести все испытания судьбы и приведут каждого к своей победе.



Страна: Россия
Продолжительность: 01:51:51

Файл
Формат: MKV
Видео: 1908x1028 at 23.976 fps, MPEG-4 AVC, ~5214 kbps avg
Аудио: Russian: 48 kHz, AC3, 3/2 (L,C,R,l,r) + LFE ch, ~384.00 kbps avg
Cубтитры: нет
General
Unique ID : 213182940064290368841821841850249928890 (0xA0618A713A8B17A1A5A9A369493660BA)
Complete name : So.dna.vershiny.2018.1080p.WEB-DL.Rus.mkv
Format : Matroska
Format version : Version 2
File size : 4.35 GiB
Duration : 1 h 51 min
Overall bit rate : 5 599 kb/s
Encoded date : UTC 2018-04-01 18:11:20
Writing application : mkvmerge v8.3.0 ('Over the Horizon') 64bit
Writing library : libebml v1.3.1 + libmatroska v1.4.2

Video
ID : 1
Format : AVC
Format/Info : Advanced Video Codec
Format profile : [email protected]
Format settings : CABAC / 4 Ref Frames
Format settings, CABAC : Yes
Format settings, RefFrames : 4 frames
Codec ID : V_MPEG4/ISO/AVC
Duration : 1 h 51 min
Bit rate : 5 214 kb/s
Width : 1 908 pixels
Height : 1 028 pixels
Display aspect ratio : 1.85:1
Frame rate mode : Constant
Frame rate : 23.976 (24000/1001) FPS
Color space : YUV
Chroma subsampling : 4:2:0
Bit depth : 8 bits
Scan type : Progressive
Bits/(Pixel*Frame) : 0.111
Stream size : 4.05 GiB (93%)
Language : English
Default : Yes
Forced : No
Color range : Limited
Color primaries : BT.709
Transfer characteristics : BT.709
Matrix coefficients : BT.709

Audio
ID : 2
Format : AC-3
Format/Info : Audio Coding 3
Codec ID : A_AC3
Duration : 1 h 51 min
Bit rate mode : Constant
Bit rate : 384 kb/s
Channel(s) : 6 channels
Channel positions : Front: L C R, Side: L R, LFE
Sampling rate : 48.0 kHz
Frame rate : 31.250 FPS (1536 SPF)
Bit depth : 16 bits
Compression mode : Lossy
Stream size : 306 MiB (7%)
Language : Russian
Service kind : Complete Main
Default : Yes
Forced : No

Menu
00:00:00.000 : en:1
00:07:03.000 : en:2
00:17:45.000 : en:3
00:28:40.000 : en:4
00:39:22.000 : en:5
00:48:49.000 : en:6
01:00:00.000 : en:7
01:11:11.000 : en:8
01:21:15.000 : en:9
01:31:51.000 : en:10
01:43:16.000 : en:11
Релиз от: NNMClub
Источник http://blator.org

Трекер:  [ 02-Апр-2018 00:30 ]

  

Скачать .torrent

Размер .torrent файла 22 KB


Размер: 4.35 GB
Хэш (hash) релиза: 435a43e714e3bd0e13a790fb2bf3ab3e2d3823b9
Подписка на обновления:

Торренты, похожие на Со дна вершины скачать торрент

Форум Название Автор Размер S L Добавлен
Российские фильмы до 2016 ·· Со дна вершины (Яна Поляруш, Тамара Цоцория, Константин Кутуев) [2017, драма, спорт, WEB-DLRip] Galfimbul 781953024746 MB 0 0 1523159652

06:54

8-Апр-18

Российские фильмы до 2016 ·· Со дна вершины (Яна Поляруш, Тамара Цоцория, Константин Кутуев) [2017, Россия, драма, спорт, WEB-DL 1080p] Original Rus Galfimbul 46721867074.35 GB 0 0 1522938665

17:31

5-Апр-18

Российские фильмы 2016-2018 (Новинки русского кино) ·· Со дна вершины (Яна Поляруш, Тамара Цоцория, Константин Кутуев) [2018 г., драма, спорт, WEB-DL 720p] | iTunes Galfimbul 37151127523.46 GB 0 0 1522646465

08:21

2-Апр-18

Российские фильмы 2016-2018 (Новинки русского кино) ·· Со дна вершины (Яна Поляруш, Тамара Цоцория, Константин Кутуев) [2018 г., драма, спорт, WEB-DLRip] | iTunes Galfimbul 22053765122.05 GB 0 0 1522646463

08:21

2-Апр-18

Российские фильмы 2016-2018 (Новинки русского кино) ·· Со дна вершины (Яна Поляруш, Тамара Цоцория, Константин Кутуев) [2017, Россия, драма, спорт, WEB-DLRip] iTunes Galfimbul 15679303681.46 GB 3 0 1522617015

00:10

2-Апр-18

Еще никто не оставлял запись к записи скачать торрент Со дна вершины . Будь первым!

!Обратная связь