(JSNMA) – Journal of the Student National Medical Association – January 2018 | 1fichier.com 720p | İsviçre

Скачать через торрент Ледниковый период. Дети Фильм бесплатно в хорошем качестве torrent

Скачивайте на UnionPeer.org фильмы через торрент без регистрации. Новинки кино в хорошем качестве через торрент. На UnionPeer.org можно скачать через торрент фильмы 2014 и 2015 годов. Самые новые фильмы.

Скачать торрент Ледниковый период. Дети бесплатно через .torrent фильм мультфильм сериал

Статистика раздачи
Размер:  2.35 GB   |    Зарегистрирован:  1 месяц 24 дня   |    .torrent скачан:  34 раза   |   
Раздают:  1  
   
загрузка...
 
Автор Сообщение

Galfimbul

avatar Galfimbul


Ледниковый период. Дети

Дата/Год выпуска: 2018
Страна: Россия
Жанр: ледовое шоу
Продолжительность: 1x114 мин.
Перевод: Не требуется
Русские субтитры: нет

Оригинальная аудиодорожка: русский
Телеканал: "Первый канал. Всемирная сеть" (1TVRUS Europe) SDОписание: Ледовое шоу с участием юных фигуристов. Предварительный кастинг проходили маленькие спортсмены из самых разных городов России: Санкт-Петербурга, Москвы, Кирова, Ростова-на-Дону, Твери. В основном это призеры и победители различных спортивных соревнований и первенств, то есть те ребятишки, которые уже давно и серьезно занимаются фигурным катанием. К отборочному этапу были допущены 20 одиночников и 17 танцевальных дуэтов. По итогам их выступлений тренеры наберут себе по команде, состоящей из трех одиночников и трех танцевальных пар. Каждую неделю наставники будут придумывать для своих подопечных яркие номера. Маленькие фигуристы будут стараться покорить строгое жюри во главе с Татьяной Тарасовой. Ну а зрители будут наблюдать, как раскрываются юные фигуристы и как от раза к разу растет уровень их мастерства. Финалистами станут один одиночный фигурист и одна пара.

Тренеры: Татьяна Навка, Максим Траньков, Роман Костомаров и Илья Авербух.
Ведущие: Алексей Ягудин и Евгения Медведева.
Комментируют выступления Александр Гришин и Владимир Гомельский.
Сэмпл: http://www.sendspace.com/file/m6la8m

качество: DVB
формат: TS/M2TS
Видео: MPEG4 Video (H264) 720x576 (20:11) 2 618kbps 25fps
Аудио: MP3 192kbps 48kHz 2ch
1. Выпуск 1. Эфир 1 апреля 2018 года.
GeneralID : 1 (0x1)Complete name : F:\Мои раздачи\Телепрограммы\Ледниковый период. Дети\Ледниковый период. Дети (2018-04-01).tsFormat : MPEG-TSFile size : 2.35 GiBDuration : 1 h 53 minOverall bit rate mode : VariableOverall bit rate : 2 958 kb/s

VideoID : 2301 (0x8FD)Menu ID : 1 (0x1)Format : AVCFormat/Info : Advanced Video CodecFormat profile : [email protected] settings, CABAC : YesFormat settings, ReFrames : 4 framesCodec ID : 27Duration : 1 h 53 minBit rate : 2 618 kb/sWidth : 720 pixelsHeight : 576 pixelsDisplay aspect ratio : 16:9Frame rate : 25.000 FPSStandard : ComponentColor space : YUVChroma subsampling : 4:2:0Bit depth : 8 bitsScan type : InterlacedScan type, store method : Separated fieldsScan order : Top Field FirstBits/(Pixel*Frame) : 0.252Stream size : 2.08 GiB (89%)Color range : LimitedColor primaries : BT.601 PALTransfer characteristics : BT.470 System B, BT.470 System GMatrix coefficients : BT.601

AudioID : 2311 (0x907)Menu ID : 1 (0x1)Format : MPEG AudioFormat version : Version 1Format profile : Layer 2Codec ID : 3Duration : 1 h 53 minBit rate mode : ConstantBit rate : 192 kb/sChannel(s) : 2 channelsSampling rate : 48.0 kHzCompression mode : LossyStream size : 156 MiB (6%)Language : English


Трекер:  [ 01-Апр-2018 22:12 ]

  

Скачать .torrent

Размер .torrent файла 12 KB


Размер: 2.35 GB
Хэш (hash) релиза: eaef03c6f1a5631ecbae2790b4c716633ac771c2
Подписка на обновления:

Торренты, похожие на Ледниковый период. Дети скачать торрент

Форум Название Автор Размер S L Добавлен
Развлекательные телепередачи и шоу ·· Ледниковый период. Дети. 08 Выпуск Финал от 2018.05.20 [2018, Ледовое шоу, HDTV, 1080i] Galfimbul 1233122832011.48 GB 0 0 1526857929

02:12

21-Май-18

Развлекательные телепередачи и шоу ·· Ледниковый период. Дети. 07 Выпуск от 2018.05.13 [2018, Ледовое шоу, HDTV, 1080i] Galfimbul 1087079074010.12 GB 0 0 1526242328

23:12

13-Май-18

Развлекательные телепередачи и шоу ·· Ледниковый период. Дети. 06 Выпуск от 2018.05.06 [2018, Pop, HDTV, 1080i] Galfimbul 83180098047.75 GB 0 0 1525642930

00:42

7-Май-18

Развлекательные телепередачи и шоу ·· Ледниковый период. Дети. 05 Выпуск от 2018.04.29 [2018, Ледовое шоу, WEBRip720p] Galfimbul 33795195843.15 GB 0 0 1525045331

02:42

30-Апр-18

Развлекательные телепередачи и шоу ·· Ледниковый период. Дети. 03 Выпуск от 2018.04.15 [2018, Ледовое шоу, WEBRip720p] Galfimbul 37164514923.46 GB 0 0 1524591736

20:42

24-Апр-18

Развлекательные телепередачи и шоу ·· Ледниковый период. Дети. 04 Выпуск от 2018.04.22 [2018, Ледовое шоу, WEBRip720p] Galfimbul 37088630603.45 GB 0 0 1524516131

23:42

23-Апр-18

Еще никто не оставлял запись к записи скачать торрент Ледниковый период. Дети . Будь первым!

!Обратная связь