Inhumans – Season 1
Party Bus to Hell 2017 1080p WEB-DL DD5 1 H264-FGT

Скачать через торрент Угадай мелодию. Новогодний выпуск Фильм бесплатно в хорошем качестве torrent

Скачивайте на UnionPeer.org фильмы через торрент без регистрации. Новинки кино в хорошем качестве через торрент. На UnionPeer.org можно скачать через торрент фильмы 2014 и 2015 годов. Самые новые фильмы.

Скачать торрент Угадай мелодию. Новогодний выпуск бесплатно через .torrent фильм мультфильм сериал

Статистика раздачи
Размер:  258 MB   |    Зарегистрирован:  23 дня   |    .torrent скачан:  23 раза   |   
Раздают:  1  
   
загрузка...
 
Автор Сообщение

Galfimbul

avatar Galfimbul


Угадай мелодию. Новогодний выпуск (30.12.2003)

Год выпуска: 2003
Страна: Россия
Жанр: Развлекательная программа, телеигра
Продолжительность: 00:22:00
Перевод: Не требуется
Русские субтитры: нет

Режиссер: Герман Ефимов

Описание: Угадай мелодию — популярная музыкальная игра на Первом канале. Ведущий Валдис Пельш проверяет «музыкальную грамотность» участников игры и оценивает её по курсу Центробанка России. В студии играет «живой» оркестр.

Участники: Дана Борисова, Андрей Малахов, Татьяна Арно

качество: SATRip
формат: AVI
видеокодек: XviD
аудиокодек: MP3
Видео: 720x544 (1.32:1), 25 fps, XviD MPEG-4 ~1500 kbps avg, 0.15 bit/pixel
Аудио: 48 kHz, MPEG Layer 3, 2 ch, ~128.00 kbps avg
Общее
Полное имя : G:\Разное\Torrent\Угадай мелодию. Новогодний выпуск (30.12.2003).avi
Формат : AVI
Формат/Информация : Audio Video Interleave
Размер файла : 258 Мбайт
Продолжительность : 22 м.
Общий поток : 1638 Кбит/сек
Библиотека кодирования : VirtualDub build 32842/release

Видео
Идентификатор : 0
Формат : MPEG-4 Visual
Профиль формата : Advanced [email protected]
Параметр BVOP формата : 2
Параметр QPel формата : Нет
Параметр GMC формата : Без точки перехода
Параметр матрицы формата : Default (H.263)
Режим смешивания : Сжатый битовый поток
Идентификатор кодека : XVID
Идентификатор кодека/Подсказка : XviD
Продолжительность : 22 м.
Битрейт : 1500 Кбит/сек
Ширина : 720 пикселей
Высота : 544 пикселя
Соотношение сторон : 4:3
Частота кадров : 25,000 кадров/сек
Цветовое пространство : YUV
Субдискретизация насыщенности : 4:2:0
Битовая глубина : 8 бит
Тип развёртки : Прогрессивная
Метод сжатия : С потерями
Бит/(Пиксели*Кадры) : 0.153
Размер потока : 236 Мбайт (92%)
Библиотека кодирования : XviD 64

Аудио
Идентификатор : 1
Формат : MPEG Audio
Версия формата : Version 1
Профиль формата : Layer 3
Режим : Joint stereo
Расширение режима : MS Stereo
Идентификатор кодека : 55
Идентификатор кодека/Подсказка : MP3
Продолжительность : 22 м.
Вид битрейта : Постоянный
Битрейт : 128 Кбит/сек
Каналы : 2 канала
Частота : 48,0 КГц
Метод сжатия : С потерями
Размер потока : 20,1 Мбайт (8%)
Выравнивание : Разделение по промежуткам
Продолжительность промежутка : 40 мс. (1,00 видеокадр)
Время предзагрузки промежутка : 500 мс.


Трекер:  [ 01-Апр-2018 16:42 ]

  

Скачать .torrent

Размер .torrent файла 10 KB


Размер: 258 MB
Хэш (hash) релиза: b2deab383a97be0a241b4ea11551700d9da91061
Подписка на обновления:

Еще никто не оставлял запись к записи скачать торрент Угадай мелодию. Новогодний выпуск . Будь первым!

!Обратная связь