épisode 11 streaming I Ain´t A Judas | Olivia Cheng | The Year of Spectacular Men 2018 10

Скачать через торрент Измайловский парк 2018.02.10 Фильм бесплатно в хорошем качестве torrent

Скачивайте на UnionPeer.org фильмы через торрент без регистрации. Новинки кино в хорошем качестве через торрент. На UnionPeer.org можно скачать через торрент фильмы 2014 и 2015 годов. Самые новые фильмы.

Скачать торрент Измайловский парк 2018.02.10 бесплатно через .torrent фильм мультфильм сериал

Статистика раздачи
Размер:  8.17 GB   |    Зарегистрирован:  3 месяца 19 дней   |    .torrent скачан:  29 раз   |   
Раздают:  3  
   
загрузка...
 
Автор Сообщение

Galfimbul

avatar Galfimbul


Измайловский парк 2018.02.10

Дата/Год выпуска: 2018
Страна: Россия
Жанр: Юмористическая передача
Продолжительность: 01:44:47
Перевод: Не требуется
Оригинальная аудиодорожка: русский
Телеканал: Россия 1 HD
Описание: В "Измайловском парке" собираются те, кому есть чем развеселить публику, и те, кому просто хочется посмеяться. Гости Лиона Измайлова: Владимир Моисеенко, , Сергей Дроботенко, Юрий Гальцев, Святослав Ещенко и другие

Номера передачи::
1.В.Данилец и В.Моисеенко - Шахматист
2.Е.Степаненко - Жизнь это цирк
3.И.Николаев - Не уходи
4.А.Трушкин - Клуб знакомст, кому за 70
5.С.Чванов и И.Касилов (Новые русские бабки) - Лотерейный билет
6.С.Ещенко и К.Пенькова - Потент
7.А.Щеглов - Мужская и женская логика
8.Глюк'оZа - Я буду тайною
9.И.Маменко и Г.Ветров -Поэт на радио
10.Л.Измайлов - Мы и иностранцы
11.А.и В.Пономаренко - Модное попурри
12.Е.Воробей - Коллектор
13.Степ-шоу "Вортэкс"

качество: HDTV 1080i
формат: TS
Видео: H264; 1920x1080 (16:9); 25.000 fps; ~10.4 Mb/s
Аудио: MPEG Audio Version 1 Layer 2, 48000Hz, 2 channels stereo 192 Кбит/сек
GeneralID : 1 (0x1)Complete name : I:\Смеяться разрешается 2014.05.01 - 2014.05.18\Измайловский парк 2018.02.10.tsFormat : MPEG-TSFile size : 8.17 GiBDuration : 1 h 44 minOverall bit rate mode : VariableOverall bit rate : 11.2 Mb/s

VideoID : 2292 (0x8F4)Menu ID : 2291 (0x8F3)Format : AVCFormat/Info : Advanced Video CodecFormat profile : [email protected] settings, CABAC : YesFormat settings, ReFrames : 4 framesFormat settings, GOP : M=4, N=32Codec ID : 27Duration : 1 h 44 minBit rate : 10.4 Mb/sWidth : 1 920 pixelsHeight : 1 080 pixelsDisplay aspect ratio : 16:9Frame rate : 25.000 FPSStandard : ComponentColor space : YUVChroma subsampling : 4:2:0Bit depth : 8 bitsScan type : InterlacedScan type, store method : Separated fieldsScan order : Top Field FirstBits/(Pixel*Frame) : 0.201Stream size : 7.62 GiB (93%)Color range : LimitedColor primaries : BT.709Transfer characteristics : BT.709Matrix coefficients : BT.709

AudioID : 2295 (0x8F7)Menu ID : 2291 (0x8F3)Format : MPEG AudioFormat version : Version 1Format profile : Layer 2Codec ID : 3Duration : 1 h 44 minBit rate mode : ConstantBit rate : 192 kb/sChannel(s) : 2 channelsSampling rate : 48.0 kHzCompression mode : LossyStream size : 144 MiB (2%)Language : Russian
5


Трекер:  [ 30-Мар-2018 18:12 ]

  

Скачать .torrent

Размер .torrent файла 41 KB


Размер: 8.17 GB
Хэш (hash) релиза: 1b9568288050229559058ed6f3b205014e7259ba
Подписка на обновления:

Еще никто не оставлял запись к записи скачать торрент Измайловский парк 2018.02.10 . Будь первым!

!Обратная связь