Regarder | IMDb: 7.3 HD The Stolen Princess | The Bold Type: Season 2

Скачать через торрент [VIDEO] Пирамммида бесплатно русская версия torrent активатор

Статистика раздачи
Размер:  1.17 GB   |    Зарегистрирован:  3 месяца 25 дней   |    .torrent скачан:  27 раз   |   
Раздают:  1  
   
загрузка...
 
Автор Сообщение

Galfimbul

avatar Galfimbul


ПираМММида

Страна: Россия
Жанр: Боевик, триллер, драма, криминал, биография
Год выпуска: 2010
Продолжительность: 01:49:45
Режиссер: Эльдар Салаватов
В ролях: Алексей Серебряков, Петр Федоров, Фёдор Бондарчук, Юрий Цурило, Артем Михалков, Алексей Горбунов, Анна Михалкова, Екатерина Вилкова, Даниил Спиваковский, Игорь Яцко

[i]Россия, начало 90-х. Страна в процессе болезненного перехода от сверхцентрализованной плановой экономики к рыночным отношениям. Простые люди, прежде жившие в условиях стабильности, растеряны и перепуганы. Все пришло в движение, ход истории разворачивается на глазах. Поворотные моменты истории всегда способствуют появлению всевозможных самозванцев и талантливых мошенников.

[b]Качество:
HDRip| Формат: MP4| Видео кодек: XviD| Аудио кодек: AAC | Видео: XviD (1.2.2) 1400kbps 800x336 23.976fps | Аудио: AAC 128kbps 2ch 16bit 48000khz

Format : MPEG-4
Format profile : Base Media / Version 2
Codec ID : mp42
File size : 1.17 GiB
Duration : 1h 49mn
Overall bit rate mode : Variable
Overall bit rate : 1 530 Kbps
Encoded date : UTC 2012-08-25 06:08:12
Tagged date : UTC 2012-08-25 06:08:12

Video
ID : 201
Format : MPEG-4 Visual
Format profile : Advanced [email protected]
Format settings, BVOP : No
Format settings, QPel : No
Format settings, GMC : No warppoints
Format settings, Matrix : Default (H.263)
Codec ID : 20
Duration : 1h 49mn
Bit rate mode : Variable
Bit rate : 1 400 Kbps
Maximum bit rate : 9 177 Kbps
Width : 800 pixels
Height : 336 pixels
Display aspect ratio : 2.40:1
Frame rate mode : Variable
Frame rate : 23.850 fps
Original frame rate : 23.976 fps
Minimum frame rate : 0.300 fps
Maximum frame rate : 23.976 fps
Color space : YUV
Chroma subsampling : 4:2:0
Bit depth : 8 bits
Scan type : Progressive
Compression mode : Lossy
Bits/(Pixel*Frame) : 0.218
Stream size : 1.07 GiB (91%)
Writing library : XviD 1.2.1 (UTC 2008-12-04)
Encoded date : UTC 2012-08-25 06:08:12
Tagged date : UTC 2012-08-25 06:09:04

Audio
ID : 101
Format : AAC
Format/Info : Advanced Audio Codec
Format profile : LC
Codec ID : 40
Duration : 1h 49mn
Bit rate mode : Variable
Bit rate : 128 Kbps
Maximum bit rate : 259 Kbps
Channel(s) : 2 channels
Channel positions : Front: L R
Sampling rate : 48.0 KHz
Compression mode : Lossy
Stream size : 100 MiB (8%)
Encoded date : UTC 2012-08-25 06:09:00
Tagged date : UTC 2012-08-25 06:09:04




Трекер:  [ 27-Мар-2018 10:36 ]

  

Скачать .torrent

Размер .torrent файла 12 KB


Размер: 1.17 GB
Хэш (hash) релиза: 892bce2b8fb2eef11fdab4aa04cfe8485d4277ce

Еще никто не оставлял запись к записи скачать торрент [VIDEO] Пирамммида . Будь первым!

!Обратная связь