Die gruseligen Abenteuer von Billy und Mandy | Джон Фортенберри | Pasiones lesbicas españolas

Скачать через торрент Жми! Death Race Фильм бесплатно в хорошем качестве torrent

Скачивайте на UnionPeer.org фильмы через торрент без регистрации. Новинки кино в хорошем качестве через торрент. На UnionPeer.org можно скачать через торрент фильмы 2014 и 2015 годов. Самые новые фильмы.

Скачать торрент Жми! Death Race бесплатно через .torrent фильм мультфильм сериал

Статистика раздачи
Размер:  1.47 GB   |    Зарегистрирован:  3 месяца 25 дней   |    .torrent скачан:  48 раз   |   
Раздают:  1  
   
загрузка...
 
Автор Сообщение

Galfimbul

avatar Galfimbul


Жми! / Death Race

Год выпуска: 2018
Страна: CША
Жанр: комедия, пародия, боевик, триллер, юмористический перевод
Продолжительность: 01:50:35
Перевод: любительский одноголосый (смешной перевод ser6630)
Режиссер: Пол В. С. Андерсон, ser6630
В ролях: Джейсон Стэтхэм, Джоан Аллен, Йен МакШейн, Тайриз Гибсон, Натали Мартинез, Макс Райан, Джейсон Кларк, Фредерик Колер, Джейкоб Варгас, Джастин Мэдер

Описание:
Смешной перевод фильма "Смертельная гонка".
2012 год. Индустрия сериалов достигла небывалых высот. Еженедельно выходит по 60 интереснейших серий, и у зрителя просто нет времени смотреть голливудские блокбастеры. Таким образом, актеры полнометражек остаются без работы и начинают влачить нищебродское существование. Чтобы удерживать зрителя, сериал должен быть интересным, а еще лучше — уникальным, и телеканал HBO начинает снимать такой. Уникальность их сериала в том, что каждая серия снимается за 1 дубль и на протяжении этого дубля актеры должны просто импровизировать. К сожалению, из-за опасных съемок иногда актеры погибают на съёмочной площадке, что, с одной стороны, ужасно, а с другой — придаёт особый шик…
Вот и наш герой, оставшись без работы в Голливуде, случайно получает возможность сняться в пилотной серии.. Как проявит себя Джейсон Стэтем, снимаясь без сценария, страховки, дублёров и хромакея?

Семпл

Файл
Кодек: XviD
Качество: HDRip
Видео: 720x304 (2.37:1), 23.976 fps, XviD build 64 ~1698 kbps avg, 0.32 bit/pixel
Звук: 48 kHz, MPEG Layer 3, 2 ch, ~192.00 kbps avg
GeneralComplete name : D:\_films\Zhmi.2018.HDRip.aviFormat : AVIFormat/Info : Audio Video InterleaveFile size : 1.47 GiBDuration : 1 h 50 minOverall bit rate : 1 900 kb/s

VideoID : 0Format : MPEG-4 VisualFormat profile : Advanced [email protected] settings, BVOP : 2Format settings, QPel : NoFormat settings, GMC : No warppointsFormat settings, Matrix : Default (MPEG)Codec ID : XVIDCodec ID/Hint : XviDDuration : 1 h 50 minBit rate : 1 698 kb/sWidth : 720 pixelsHeight : 304 pixelsDisplay aspect ratio : 2.35:1Frame rate : 23.976 (24000/1001) FPSColor space : YUVChroma subsampling : 4:2:0Bit depth : 8 bitsScan type : ProgressiveCompression mode : LossyBits/(Pixel*Frame) : 0.324Stream size : 1.31 GiB (89%)Writing library : XviD 64

AudioID : 1Format : MPEG AudioFormat version : Version 1Format profile : Layer 3Codec ID : 55Codec ID/Hint : MP3Duration : 1 h 50 minBit rate mode : ConstantBit rate : 192 kb/sChannel(s) : 2 channelsSampling rate : 48.0 kHzCompression mode : LossyStream size : 152 MiB (10%)Alignment : Split accross interleavesInterleave, duration : 42 ms (1.00 video frame)Writing library : LAMELAME_MAJOR_VERSI


Трекер:  [ 26-Мар-2018 22:12 ]

  

Скачать .torrent

Размер .torrent файла 15 KB


Размер: 1.47 GB
Хэш (hash) релиза: 57c9de95251236dee22c9b765e22c8980ec11606
Подписка на обновления:

Торренты, похожие на Жми! Death Race скачать торрент

Форум Название Автор Размер S L Добавлен
Зарубежные фильмы 2016-2018 (Новинки зарубежного кино) ·· Жми! / Death Race [2018, комедия, пародия, боевик, смешной перевод, HDRip] Смешной перевод Galfimbul 15757707901.47 GB 2 0 1524225611

15:00

20-Апр-18

Еще никто не оставлял запись к записи скачать торрент Жми! Death Race . Будь первым!

!Обратная связь