Zombie Apocalypse 2011 1080p BluRay x264-NOSCREENS
Download

Скачать через торрент Бадди Хэкетт Buddy Hackett - Live and Uncensored Фильм бесплатно в хорошем качестве torrent

Скачивайте на UnionPeer.org фильмы через торрент без регистрации. Новинки кино в хорошем качестве через торрент. На UnionPeer.org можно скачать через торрент фильмы 2014 и 2015 годов. Самые новые фильмы.

Скачать торрент Бадди Хэкетт Buddy Hackett - Live and Uncensored бесплатно через .torrent фильм мультфильм сериал

Статистика раздачи
Размер:  784 MB   |    Зарегистрирован:  28 дней   |    .torrent скачан:  27 раз   |   
Раздают:  1  
   
загрузка...
 
Автор Сообщение

Galfimbul

avatar Galfimbul


Бадди Хэкетт / Buddy Hackett - Live and Uncensored

Дата/Год выпуска: 1983
Страна: США
Жанр: комедия, юмор, stand-up
Продолжительность: 01:12:17
Перевод: Авторский (одноголосый закадровый) Леонида Володарского
Оригинальная аудиодорожка: английский
Режиссер: Christopher Kelly

Описание: творческий вечер проходил в Resorts International в Атлантик-Сити, штат Нью-Джерси, в марте 1983 года

Бадди Хэкетт, настоящее имя - Леонард Хэкер, родился 31-го августа 1924-го года в Бруклине, Нью-Йорк, США. Окончил школу New Utrecht High School в 1942-м. Выступал в ночных клубах и был зачислен в ПВО в ходе Второй мировой войны.
После войны Леонард получил свою первую работу в бруклинском клубе 'Розовый слон', где и сменил свое имя на 'Бадди Хэкетт'. Он выступал в Лос-Анджелесе и Лас-Вегасе, после чего попал на Бродвей в фарс 'Лунатики и любовник', где его заметил Макс Либман и протолкнул на телевидение. Продюсируемый Либманом, новый сериал 'Stanley' был создан специально для Хэкетта и во многом помог состояться карьере актрисы Кэрол Бёрнетт. Ему предложили заменить Кёрли Ховарда в американском водевиле 'The Three Stooges', после того как Кёрли перенес инсульт, но тот отказался от роли.
Кинокарьера Хэкетта началась в 1950-х со спортивной десятиминутки под названием 'King of the Pins' для студии 'Columbia Pictures'. В этой короткометражке демонстрировались чемпионские приемы по боулингу, где экспертом выступил Джо Уилман, а Бадди, наоборот, пантомимой показывал, как не стоит играть. Однако до 1953-м он был вынужден оставить съемки.
После комедийного номера, где Хэкетт нацепил резиновую ленту на голову и скосил глаза, чтобы превратиться в 'китайского официанта' и показать, с какими языковыми проблемами сталкиваются американские посетители, актеру удалось напомнить о себе – и по-настоящему дебютировать в киноиндустрии. Он сыграл Эдвардса в комедийном мюзикле Ллойда Бэйкона 'Walking My Baby Back Home'.
12-го июня 1955-го Бадди женился на Шерри Коэн.
Комик стал известен широкой аудитории благодаря работе на телевидении в 1950-х и 1960-х, где он был частым гостем на ток-шоу с Джеком Паром и Артуром Годфри. В ходе программ Хэкетт не гнушался выказывать свою дерзость, часто выступал с непристойными шутками и гримасничал на камеру.
В 1963-м приключенческая комедия Стэнли Крамера под названием 'Это безумный, безумный, безумный, безумный мир', где Бадди сыграл Бенджи Бенджамина, сорвала шикарный бокс-офис. После роли на Бродвее, в пьесе 'I Had a Ball', актер вместе с Робертом Престоном стал звездой киномюзикла 'Музыкант', а также в образе привлекательного автомеханика-хиппи появился в детской диснеевской комедии 'Фольксваген-жук'. Заменив Арта Карни в 'Шоу Джеки Глисона', в 1958-м Хэкетт получил право сняться в драме Энтони Манна 'Богова делянка'.
Вместе с дебютировавшей на экранах 13-летней Ясмин Блит актер снялся в канадском фильме Рафала Зелински 'Hey Babe!' 1980-го. Заканчивая свою карьеру, уроженец Бруклина в основном в качестве гостя посещал различные телешоу и прайм-тайм ситкомы, включая четвертый сезон сериала 'Парень познает мир' и сыгранную им роль Ленни Хакера в сериале 'Космические спасатели'.
Его последней работой на больших экранах стала озвучка глупой маленькой чайки по имени Скаттл в диснеевском мультфильме 'Русалочка' 1989-го, а также в его сиквеле 2000-го, 'Русалочка 2: Возвращение в море'. Помимо этих анимационных картин, Бадди озвучивал героя мультсериала 'Гарфилд и его друзья'.
В последние годы своей жизни американский комик и его жена основали заповедник для животных 'Singita Animal Sanctuary' в долине Сан-Фернандо, Калифорния.
За свой вклад в киноиндустрию отмечен звездой на Голливудской Аллее Славы. (написал Алексей Булатов)

Доп. информация: рип для нас выкачал и прислал vlad66666, Володарского оцифровал и подготовил karlll

качество: WEB-DLRip ~Сэмпл~
формат: MKV
Видео: MPEG4 Video (H264) 640x480 29.97fps 1070Kbps
Аудио 1: Dolby AC3 48KHz 2ch 192Kbps - рус
Аудио 2: Dolby AC3 48KHz 2ch 224Kbps - анг
Формат : MatroskaВерсия формата : Version 2Размер файла : 784 МбайтПродолжительность : 1 ч. 12 м.Режим общего битрейта : ПеременныйОбщий поток : 1516 Кбит/секНазвание фильма : Buddy Hackett - Live and Uncensored, 1983 [KBC]Дата кодирования : UTC 2018-03-26 16:35:17Программа кодирования : mkvmerge v6.9.1 ('Blue Panther') 32bit built on Apr 18 2014 18:15:44Библиотека кодирования : libebml v1.3.0 + libmatroska v1.4.1

ВидеоИдентификатор : 1Формат : AVCФормат/Информация : Advanced Video CodecПрофиль формата : [email protected]Параметр CABAC формата : ДаПараметр ReFrames формата : 5 кадровИдентификатор кодека : V_MPEG4/ISO/AVCПродолжительность : 1 ч. 12 м.Вид битрейта : ПеременныйБитрейт : 1070 Кбит/секМаксимальный битрейт : 1800 Кбит/секШирина : 640 пикселейВысота : 480 пикселейСоотношение сторон : 4:3Режим частоты кадров : ПостоянныйЧастота кадров : 29,970 кадров/секЦветовое пространство : YUVСубдискретизация насыщенности : 4:2:0Битовая глубина : 8 битТип развёртки : ПрогрессивнаяБит/(Пиксели*Кадры) : 0.116Размер потока : 553 Мбайт (71%)Заголовок : Buddy Hackett - Live and Uncensored (1983)Библиотека кодирования : x264 core 148 r2623 d5b2374Настройки программы : cabac=1 / ref=5 / deblock=1:-1:-1 / analyse=0x1:0x131 / me=umh / subme=10 / psy=1 / psy_rd=1.00:0.15 / mixed_ref=1 / me_range=24 / chroma_me=1 / trellis=2 / 8x8dct=0 / cqm=0 / deadzone=21,11 / fast_pskip=1 / chroma_qp_offset=-3 / threads=15 / lookahead_threads=2 / sliced_threads=0 / nr=150 / decimate=1 / interlaced=0 / bluray_compat=0 / constrained_intra=0 / bframes=8 / b_pyramid=2 / b_adapt=2 / b_bias=0 / direct=3 / weightb=1 / open_gop=0 / weightp=2 / keyint=150 / keyint_min=76 / scenecut=40 / intra_refresh=0 / rc_lookahead=150 / rc=crf / mbtree=1 / crf=22.0 / qcomp=0.60 / qpmin=0 / qpmax=69 / qpstep=4 / vbv_maxrate=1800 / vbv_bufsize=7000 / crf_max=0.0 / nal_hrd=vbr / filler=0 / ip_ratio=1.40 / aq=3:1.00Язык : EnglishDefault : ДаForced : НетОсновные цвета : BT.709Характеристики трансфера : BT.709Коэффициенты матрицы : BT.709

Аудио #1Идентификатор : 2Формат : AC-3Формат/Информация : Audio Coding 3Расширение режима : CM (complete main)Параметр Endianness формата : BigИдентификатор кодека : A_AC3Продолжительность : 1 ч. 12 м.Вид битрейта : ПостоянныйБитрейт : 192 Кбит/секКаналы : 2 каналаРасположение каналов : Front: L RЧастота : 48,0 КГцБитовая глубина : 16 битМетод сжатия : С потерямиРазмер потока : 99,3 Мбайт (13%)Заголовок : ВолодарскийЯзык : RussianDefault : ДаForced : Нет

Аудио #2Идентификатор : 3Формат : E-AC-3Формат/Информация : Audio Coding 3Параметр Endianness формата : BigИдентификатор кодека : A_EAC3Продолжительность : 1 ч. 12 м.Вид битрейта : ПостоянныйБитрейт : 224 Кбит/секКаналы : 2 каналаРасположение каналов : Front: L RЧастота : 48,0 КГцМетод сжатия : С потерямиРазмер потока : 116 Мбайт (15%)Заголовок : englishЯзык : EnglishDefault : НетForced : Нет


Трекер:  [ 26-Мар-2018 22:12 ]

  

Скачать .torrent

Размер .torrent файла 16 KB


Размер: 784 MB
Хэш (hash) релиза: 1edc244d4722a778958aa23829224729aeacac17
Подписка на обновления:

Еще никто не оставлял запись к записи скачать торрент Бадди Хэкетт Buddy Hackett - Live and Uncensored . Будь первым!

!Обратная связь