Mahabharatham
Titan (2018)

Скачать через торрент Международная пилорама с Тиграном Кеосаяном 2018.03.24 Фильм бесплатно в хорошем качестве torrent

Скачивайте на UnionPeer.org фильмы через торрент без регистрации. Новинки кино в хорошем качестве через торрент. На UnionPeer.org можно скачать через торрент фильмы 2014 и 2015 годов. Самые новые фильмы.

Скачать торрент Международная пилорама с Тиграном Кеосаяном 2018.03.24 бесплатно через .torrent фильм мультфильм сериал

Статистика раздачи
Размер:  2.86 GB   |    Зарегистрирован:  26 дней   |    .torrent скачан:  29 раз   |   
Раздают:  1  
   
загрузка...
 
Автор Сообщение

Galfimbul

avatar Galfimbul


Международная пилорама с Тиграном Кеосаяном 2018.03.24

Дата/Год выпуска: 2018
Страна: Россия
Жанр: Юмористическое политическое шоу
Продолжительность: 00:44:38
Перевод: Не требуется
Русские субтитры: нет

Оригинальная аудиодорожка: русский
Телеканал: НТВ
Описание: «Международная пилорама» сэкономит время телезрителей. Следить за политической обстановкой в мире, колебаниями курсов валют и новостями шоу-бизнеса теперь вовсе не обязательно. Каждую субботу Тигран Эдмондович в свойственной ему язвительной манере будет разбирать события мировой политики. Под огонь его едких комментариев попадут многие — от журналистов до политических лидеров.

качество: HDTV 1080i
формат: MKV
Видео: AVC, 1920x1080, (16:9), 25 fps, 9.0 Mbps
Аудио: RUS, MP2, 2 ch, 48 KHz, 192 Kbps
GeneralUnique ID : 195031978460482714887395302514597007100 (0x92B9CAF134C2FDD24251750B511B8EFC)Complete name : E:\Международная пилорама с Тиграном Кеосаяном 2018.03.24.mkvFormat : MatroskaFormat version : Version 4 / Version 2File size : 2.86 GiBDuration : 44 min 38 sOverall bit rate : 9 187 kb/sEncoded date : UTC 2018-03-26 05:28:25Writing application : mkvmerge v21.0.0 ('Tardigrades Will Inherit The Earth') 32-bitWriting library : libebml v1.3.5 + libmatroska v1.4.8

VideoID : 1Format : AVCFormat/Info : Advanced Video CodecFormat profile : [email protected] settings : CABAC / 4 Ref FramesFormat settings, CABAC : YesFormat settings, RefFrames : 4 framesCodec ID : V_MPEG4/ISO/AVCDuration : 44 min 38 sBit rate : 8 991 kb/sWidth : 1 920 pixelsHeight : 1 080 pixelsDisplay aspect ratio : 16:9Frame rate mode : VariableFrame rate : 50.000 FPSOriginal frame rate : 25.000 FPSStandard : ComponentColor space : YUVChroma subsampling : 4:2:0Bit depth : 8 bitsScan type : InterlacedScan type, store method : Separated fieldsScan order : Top Field FirstBits/(Pixel*Frame) : 0.087Stream size : 2.80 GiB (98%)Default : YesForced : NoColor range : LimitedColor primaries : BT.709Transfer characteristics : BT.709Matrix coefficients : BT.709

AudioID : 2Format : MPEG AudioFormat version : Version 1Format profile : Layer 2Codec ID : A_MPEG/L2Codec ID/Hint : MP2Duration : 44 min 38 sBit rate mode : ConstantBit rate : 192 kb/sChannel(s) : 2 channelsSampling rate : 48.0 kHzFrame rate : 41.667 FPS (1152 SPF)Compression mode : LossyStream size : 61.3 MiB (2%)Language : RussianDefault : YesForced : No


Трекер:  [ 26-Мар-2018 08:42 ]

  

Скачать .torrent

Размер .torrent файла 15 KB


Размер: 2.86 GB
Хэш (hash) релиза: de7e580fe3d619131c4a626b109f27eef66e7eda
Подписка на обновления:

Еще никто не оставлял запись к записи скачать торрент Международная пилорама с Тиграном Кеосаяном 2018.03.24 . Будь первым!

!Обратная связь