HD 720 77 Heartbreaks | Love Hina | Jurassic World : Fallen Kingdom (2018)

Скачать через торрент Что? Где? Когда? Весенняя серия. Игра 3 Фильм бесплатно в хорошем качестве torrent

Скачивайте на UnionPeer.org фильмы через торрент без регистрации. Новинки кино в хорошем качестве через торрент. На UnionPeer.org можно скачать через торрент фильмы 2014 и 2015 годов. Самые новые фильмы.

Скачать торрент Что? Где? Когда? Весенняя серия. Игра 3 бесплатно через .torrent фильм мультфильм сериал

Статистика раздачи
Размер:  5.64 GB   |    Зарегистрирован:  3 месяца 24 дня   |    .torrent скачан:  53 раза   |   
Раздают:  1  
   
загрузка...
 
Автор Сообщение

Galfimbul

avatar Galfimbul


Что? Где? Когда? Весенняя серия. Игра 3

Дата/Год выпуска: 25.03.2018
Страна: Россия
Жанр: Телеигра
Продолжительность: 01:11:40
Перевод: Не требуется
Телеканал: Первый HD
Описание: Третья Игра Весенней Серии 2018г Элитарного клуба ЧГК

Доп. информация: команда Константина Рудера

1. Никита Баринов
2. Александра Золотова
3. Евгений Фионов
4. Роман Кузиков
5. Илья Баженов
6. Константин Рудер

качество: HDTV 1080i
формат: TS
Видео: AVC at 10,1 Мбит/сек Aspect : 1920 x 1080 (1.778) at 25.000 fps
Аудио: AC-3 at 384 Кбит/сек Infos : 6 каналов, 48,0 КГц
Аудио 2: MPEG Audio at 192 Кбит/сек Infos : 2 канала, 48,0 КГц
ОбщееИдентификатор : 1 (0x1)Полное имя : E:\MPEG\ЧГК.25.03.2018.HDTV.1080i.Doc66.tsФормат : MPEG-TSРазмер файла : 5,64 ГбайтПродолжительность : 1 ч. 11 м.Режим общего битрейта : ПеременныйОбщий поток : 11,3 Мбит/сек

ВидеоИдентификатор : 205 (0xCD)Идентификатор меню : 20105 (0x4E89)Формат : AVCФормат/Информация : Advanced Video CodecПрофиль формата : [email protected]Параметр CABAC формата : ДаПараметр ReFrames формата : 4 кадраПараметр GOP формата : M=4, N=28Идентификатор кодека : 27Продолжительность : 1 ч. 11 м.Битрейт : 10,1 Мбит/секШирина : 1920 пикселейВысота : 1080 пикселейСоотношение сторон : 16:9Частота кадров : 25,000 кадров/секСтандарт вещания : ComponentЦветовое пространство : YUVСубдискретизация насыщенности : 4:2:0Битовая глубина : 8 битТип развёртки : ЧересстрочнаяПорядок развёртки : Верхнее поле первоеБит/(Пиксели*Кадры) : 0.195Размер потока : 5,07 Гбайт (90%)Цветовой диапазон : LimitedОсновные цвета : BT.709Характеристики трансфера : BT.709Коэффициенты матрицы : BT.709

Аудио #1Идентификатор : 305 (0x131)Идентификатор меню : 20105 (0x4E89)Формат : AC-3Формат/Информация : Audio Coding 3Расширение режима : CM (complete main)Параметр Endianness формата : BigИдентификатор кодека : 6Продолжительность : 1 ч. 11 м.Вид битрейта : ПостоянныйБитрейт : 384 Кбит/секКаналы : 6 каналовРасположение каналов : Front: L C R, Side: L R, LFEЧастота : 48,0 КГцМетод сжатия : С потерямиЗадержка видео : -80 мс.Размер потока : 197 Мбайт (3%)Язык : Russian

Аудио #2Идентификатор : 306 (0x132)Идентификатор меню : 20105 (0x4E89)Формат : MPEG AudioВерсия формата : Version 1Профиль формата : Layer 2Идентификатор кодека : 3Продолжительность : 1 ч. 11 м.Вид битрейта : ПостоянныйБитрейт : 192 Кбит/секКаналы : 2 каналаЧастота : 48,0 КГцМетод сжатия : С потерямиЗадержка видео : -80 мс.Размер потока : 98,4 Мбайт (2%)Язык : Russian

Текст #1Идентификатор : 307 (0x133)-100Идентификатор меню : 20105 (0x4E89)Формат : TeletextЯзык : Russian

Текст #2Идентификатор : 307 (0x133)-888Идентификатор меню : 20105 (0x4E89)Формат : Teletext SubtitleЯзык : RussianЯзык, дополнительно : For hearing impaired people

МенюИдентификатор : 105 (0x69)Идентификатор меню : 20105 (0x4E89)Продолжительность : 1 ч. 11 м.Список : 205 (0xCD) (AVC) / 305 (0x131) (AC-3, Russian) / 306 (0x132) (MPEG Audio, Russian) / 307 (0x133) ()Язык : / Russian / Russian
будут


Трекер:  [ 26-Мар-2018 00:12 ]

  

Скачать .torrent

Размер .torrent файла 28 KB


Размер: 5.64 GB
Хэш (hash) релиза: be681f97ee27e648900b0f9a384a563772f1476d
Подписка на обновления:

Торренты, похожие на Что? Где? Когда? Весенняя серия. Игра 3 скачать торрент

Форум Название Автор Размер S L Добавлен
Развлекательные телепередачи и шоу ·· Что? Где? Когда? Весенняя серия. Игра 3 [29.03.2002, Интеллектуальная игра, TVRip] Galfimbul 588481542561 MB 0 0 1418852596

00:43

18-Дек-14

Развлекательные телепередачи и шоу ·· Что? Где? Когда? Весенняя серия. Игра 3 [09.04.2017, Телеигра, HDTV, Первый HD, 1080i] Galfimbul 33435529283.11 GB 0 0 1491782152

02:55

10-Апр-17

Развлекательные телепередачи и шоу ·· Что? Где? Когда? Весенняя Серия. Игра 3 [10.04.2016, Телеигра, HDTV 1080i] Galfimbul 45379295244.23 GB 0 0 1465751818

20:16

12-Июн-16

Развлекательные телепередачи и шоу ·· Что? Где? Когда? Весенняя Серия. Игра 3 [10.04.2016, Телеигра, HDTVRip - AVC] Galfimbul 659716520629 MB 0 0 1460382323

16:45

11-Апр-16

Развлекательные телепередачи и шоу ·· Что? Где? Когда? Весенняя серия. Игра 1-3 [2015, Телеигра, HDTVRip, SATRip] Galfimbul 19148952421.78 GB 0 0 1428222786

11:33

5-Апр-15

Развлекательные телепередачи и шоу ·· Что? Где? Когда? 2014 год. Весенняя - Летняя - Осенняя - Зимняя серии. Добавлена 3 Игра Зимней серии (13.12) [2014, Телеигра, HDTVRip, SATRip (AVC)] Galfimbul 85155584877.93 GB 0 0 1418852565

00:42

18-Дек-14

Еще никто не оставлял запись к записи скачать торрент Что? Где? Когда? Весенняя серия. Игра 3 . Будь первым!

!Обратная связь