Jay Sean – Cherry Papers | Chapter 336 : To put It Simply | Der Fahnder

Скачать через торрент Шоу Братьев Шумахеров Шоу Братів Шумахерів Фильм бесплатно в хорошем качестве torrent

Скачивайте на UnionPeer.org фильмы через торрент без регистрации. Новинки кино в хорошем качестве через торрент. На UnionPeer.org можно скачать через торрент фильмы 2014 и 2015 годов. Самые новые фильмы.

Скачать торрент Шоу Братьев Шумахеров Шоу Братів Шумахерів бесплатно через .torrent фильм мультфильм сериал

Статистика раздачи
Размер:  2.04 GB   |    Зарегистрирован:  3 месяца 23 дня   |    .torrent скачан:  48 раз   |   
Раздают:  1  
   
загрузка...
 
Автор Сообщение

Galfimbul

avatar Galfimbul


Шоу Братьев Шумахеров / Шоу Братів Шумахерів

Дата/Год выпуска: 2018
Страна: Украина
Жанр: юмористическое шоу
Продолжительность: 2x90 мин.
Перевод: Не требуется
Русские субтитры: нет

Оригинальная аудиодорожка: русский
Ведущие: Юрий Великий и Сергей Цвиловский
Телеканал: канал "Украина"Описание: Главные ведущие шоу – закадычные друзья Юрий Великий и Сергей Цвиловский, известные как Братья Шумахеры. Они воплощают абсолютно разных героев: Юрий – примерного семьянина, а Сергей – обаятельного холостяка, но оба не могут понять, как на самом деле сделать женщину счастливой.

Помимо самих Братьев Шумахеров, воплощать забавные сцены из жизни будет целая команда актеров – Вячеслав Кужим, Евгений Синчуков, Елена Турбал, Евгения Мякенькая, Артем Русев и Светлана Прус. В их исполнении телезрители канала «Украина» увидят множество героев – глупенькую блондинку, брошенную женщину, подкаблучника, семейную пару, которая впервые после введения безвиза собралась в отпуск, продавцов в модном бутике, высокопоставленных чиновников и других типажей.

Кроме того, в гости к Братьям Шумахерам придут известные украинские артисты.
Сэмпл: http://www.sendspace.com/file/f327q4

качество: SATRip
формат: AVI
Видео: Xvid 720x400 (16:9) ~1536kbps 25fps
Аудио: MP3 128kbps 48kHz 2ch
1. Выпуск 5. 17 марта 2018 года.
2. Выпуск 6. 24 марта 2018 года.
GeneralComplete name : F:\Мои раздачи\Телепрограммы\Шоу Братів Шумахерів\Випуск 05. 17.03.2018.aviFormat : AVIFormat/Info : Audio Video InterleaveFile size : 1.07 GiBDuration : 1 h 31 minOverall bit rate : 1 672 kb/s

VideoID : 0Format : MPEG-4 VisualFormat profile : Advanced [email protected] settings, BVOP : 2Format settings, QPel : NoFormat settings, GMC : No warppointsFormat settings, Matrix : Default (H.263)Codec ID : XVIDCodec ID/Hint : XviDDuration : 1 h 31 minBit rate : 1 534 kb/sWidth : 720 pixelsHeight : 400 pixelsDisplay aspect ratio : 16:9Frame rate : 25.000 FPSColor space : YUVChroma subsampling : 4:2:0Bit depth : 8 bitsScan type : ProgressiveCompression mode : LossyBits/(Pixel*Frame) : 0.213Stream size : 1 006 MiB (92%)Writing library : XviD 73

AudioID : 1Format : MPEG AudioFormat version : Version 1Format profile : Layer 3Codec ID : 55Codec ID/Hint : MP3Duration : 1 h 31 minBit rate mode : ConstantBit rate : 128 kb/sChannel(s) : 1 channelSampling rate : 48.0 kHzCompression mode : LossyStream size : 84.0 MiB (8%)Alignment : Split accross interleavesInterleave, duration : 40 ms (1.00 video frame)Interleave, preload duration : 500 ms


Трекер:  [ 25-Мар-2018 20:12 ]

  

Скачать .torrent

Размер .torrent файла 11 KB


Размер: 2.04 GB
Хэш (hash) релиза: fa659b64c6922168cf4f193aab4c0d80a8a5651b
Подписка на обновления:

Торренты, похожие на Шоу Братьев Шумахеров Шоу Братів Шумахерів скачать торрент

Форум Название Автор Размер S L Добавлен
Развлекательные телепередачи и шоу ·· Новогоднее Шоу Братьев Шумахеров / Новорічне Шоу Братів Шумахерів (канал "Украина") [2018, юмористическое шоу, DVB] Galfimbul 57164859205.32 GB 0 0 1514899084

16:18

2-Янв-18

Еще никто не оставлял запись к записи скачать торрент Шоу Братьев Шумахеров Шоу Братів Шумахерів . Будь первым!

!Обратная связь