Terms of Use
Like Me Magazine issue 2 2012 Blue Nan

Скачать через торрент ПостКВН. Вечерний квартал Выпуск 108. 8 Марта, Часть 2 Фильм бесплатно в хорошем качестве torrent

Скачивайте на UnionPeer.org фильмы через торрент без регистрации. Новинки кино в хорошем качестве через торрент. На UnionPeer.org можно скачать через торрент фильмы 2014 и 2015 годов. Самые новые фильмы.

Скачать торрент ПостКВН. Вечерний квартал Выпуск 108. 8 Марта, Часть 2 бесплатно через .torrent фильм мультфильм сериал

Статистика раздачи
Размер:  2.53 GB   |    Зарегистрирован:  1 месяц 1 день   |    .torrent скачан:  47 раз   |   
Раздают:  1  
   
загрузка...
 
Автор Сообщение

Galfimbul

avatar Galfimbul


ПостКВН. Вечерний квартал / Выпуск 108. 8 Марта, Часть 2 WEB-DL 1080p

Дата/Год выпуска: 24.03.2018
Страна: Украина
Жанр: Юмористическое шоу, концерт, сатира
Продолжительность: 01:26:29
Перевод: Не требуется
Русские субтитры: нет

Оригинальная аудиодорожка: русский, украинский (~95/5)
Режиссер: Студия "95 квартал"

Телеканал: Телеканал 1+1
Описание: Ребята из "Вечернего квартала" продолжают устанавливать свои правила. И ни авторитет звезд шоу-бизнеса, ни статус влиятельных политиков, ни сам "президент Украины" не могут этому помешать. Здесь правила одни для всех, и "квартальщики" внимательно следят за тем, чтобы все "забавные законы" соблюдались. Злостных правонарушителей ребята из Квартала определяют по отсутствию улыбки на лице. Но в сегодня такие вряд ли найдутся, ведь у нас - юмор высшего класса от "Вечернего квартала".

Качество: WEB-DL
Формат: MKV
Видео: MPEG4 Video (H264), 1920x1080, 25fps, 16:9, ~4000 kbps
Аудио: 48,0 kHz, AAC, 2 ch, 192 kbps
Непроизвольное мочевыделение - Жить Здорово с Кличко и Парубий
Жизнь в аду среди баб - Семья, в которой 8 дочерей
Насосала пылесосом - Песня про женщину в Panamera
Кого бы не выбрали, хуже не будет - Валерий Жидков (Тамбовский Волк)
Мартовские коты без бубенцов - Ветеринарная клиника Чик-Чик
Бременские музыканты уже не те - Трубадур и принцесса 30 лет спустя
Шкура, алкаш, барыга - Муж научил попугая разговаривать
Ёк-макарёк - Добро пожаловать в клуб Кому за 40
Нулевой километр - финальная песня
Полное имя : D:\Торренты\Вечерний квартал (24.03.2018)\Вечерний квартал (24.03.2018).mkvФормат : MatroskaВерсия формата : Version 4 / Version 2Размер файла : 2,53 ГбайтПродолжительность : 1 ч. 26 м.Общий поток : 4192 Кбит/секДата кодирования : UTC 2018-03-25 08:28:48Программа кодирования : mkvmerge v8.1.0 ('Psychedelic Postcard') 64bitБиблиотека кодирования : libebml v1.3.1 + libmatroska v1.4.2

ВидеоИдентификатор : 1Формат : AVCФормат/Информация : Advanced Video CodecПрофиль формата : [email protected]Параметр CABAC формата : ДаПараметр ReFrames формата : 3 кадраИдентификатор кодека : V_MPEG4/ISO/AVCПродолжительность : 1 ч. 26 м.Битрейт : 3997 Кбит/секШирина : 1912 пикселейШирина оригинала : 1920 пикселейВысота : 1088 пикселейВысота оригинала : 1080 пикселейСоотношение сторон : 16:9Соотношение сторон в оригинале : 16:9Режим частоты кадров : ПостоянныйЧастота кадров : 25,000 кадров/секЦветовое пространство : YUVСубдискретизация насыщенности : 4:2:0Битовая глубина : 8 битТип развёртки : ПрогрессивнаяБит/(Пиксели*Кадры) : 0.077Размер потока : 2,41 Гбайт (95%)Default : ДаForced : Нет

АудиоИдентификатор : 2Формат : AACФормат/Информация : Advanced Audio CodecПрофиль формата : LCИдентификатор кодека : A_AACПродолжительность : 1 ч. 26 м.Битрейт : 192 Кбит/секКаналы : 2 каналаРасположение каналов : Front: L RЧастота : 48,0 КГцЧастота кадров : 46,875 кадров/сек (1024 spf)Метод сжатия : С потерямиРазмер потока : 119 Мбайт (5%)Заголовок : rus+ukrЯзык : RussianDefault : ДаForced : Нет


Трекер:  [ 25-Мар-2018 12:12 ]

  

Скачать .torrent

Размер .torrent файла 13 KB


Размер: 2.53 GB
Хэш (hash) релиза: 2d0db77f77c69bb526bd88663c55b770d386d1d6
Подписка на обновления:

Еще никто не оставлял запись к записи скачать торрент ПостКВН. Вечерний квартал Выпуск 108. 8 Марта, Часть 2 . Будь первым!

!Обратная связь