Prem Ya Paheli - Chandrakanta... | Private.Eyes.S02E14.HDTV.x264-LucidTV[ettv] | Iss Khamoshi Ka Matlab

Скачать порно через торрент [Ukupskirts Pantyamateur.com] Megapack 2 x50 UnionPeer.org бесплатно онлайн HD качество

Скачать новое порно 2015, 2014 новинки через торрент UnionPeer.org

Порно торрент бесплатно ЮнионПир.орг

Статистика раздачи
Размер:  8.32 GB   |    Зарегистрирован:  4 месяца 27 дней   |    .torrent скачан:  242 раза   |   
Раздают:  1  
   
загрузка...
 
Автор Сообщение

Galfimbul

avatar Galfimbul


[Ukupskirts Pantyamateur.com] Megapack 2 x50 960,1080p
Год производства: 2017 г.
Жанр: Solo Fetish
Тип HD видео: 1080p
Качество видео: WEB-DL
Формат видео: WMV
Видео: Windows Media Video 9 1920x1080 25.00fps 8085Kbps
Аудио: Windows Media Audio Stereo 440 kbps, 44 kHz
[Ukupskirts Pantyamateur.com] 2/040416 UKU Jess West.wmv
Format : Windows Media
File size : 255 MiB
Duration : 4mn 15s
Overall bit rate mode : Variable
Overall bit rate : 8 360 Kbps
Maximum Overall bit rate : 10.4 Mbps
Encoded date : UTC 2016-02-04 13:44:15.879

Video
ID : 2
Format : VC-1
Format profile : [email protected]
Codec ID : WMV3
Codec ID/Info : Windows Media Video 9
Codec ID/Hint : WMV3
Description of the codec : Windows Media Video 9 - Professional
Duration : 4mn 15s
Bit rate mode : Variable
Bit rate : 8 000 Kbps
Width : 1 920 pixels
Height : 1 080 pixels
Display aspect ratio : 16:9
Frame rate : 25.000 fps
Bit depth : 8 bits
Compression mode : Lossy
Bits/(Pixel*Frame) : 0.154
Stream size : 244 MiB (96%)
Language : English (GB)
NumberOfFrames : 6379

Audio
ID : 1
Format : WMA
Format profile : Pro
Codec ID : 162
Codec ID/Info : Windows Media Audio
Description of the codec : Windows Media Audio 10 Professional - 440 kbps, 44 kHz, 2 channel 24 bit 2-pass VBR
Duration : 4mn 15s
Bit rate mode : Variable
Bit rate : 390 Kbps
Channel(s) : 2 channels
Sampling rate : 44.1 KHz
Bit depth : 24 bits
Stream size : 11.9 MiB (5%)
Language : English (GB)
NumberOfFrames : 608
[Ukupskirts Pantyamateur.com] 2/Ashley_T (3).wmv
Format : Windows Media
File size : 72.8 MiB
Duration : 4mn 14s
Overall bit rate mode : Variable
Overall bit rate : 2 402 Kbps
Maximum Overall bit rate : 4 430 Kbps
Encoded date : UTC 2015-01-22 12:35:11.300

Video
ID : 2
Format : VC-1
Format profile : [email protected]
Codec ID : WMV3
Codec ID/Info : Windows Media Video 9
Codec ID/Hint : WMV3
Description of the codec : Windows Media Video 9 - Professional
Bit rate mode : Variable
Bit rate : 2 000 Kbps
Width : 960 pixels
Height : 540 pixels
Display aspect ratio : 16:9
Frame rate mode : Variable
Nominal frame rate : 25.000 fps
Color space : YUV
Chroma subsampling : 4:2:0
Bit depth : 8 bits
Scan type : Progressive
Compression mode : Lossy
NumberOfFrames : 6349

Audio
ID : 1
Format : WMA
Format profile : Pro
Codec ID : 162
Codec ID/Info : Windows Media Audio
Description of the codec : Windows Media Audio 10 Professional - 440 kbps, 96 kHz, 2 channel 24 bit 2-pass VBR
Duration : 4mn 14s
Bit rate mode : Variable
Bit rate : 398 Kbps
Channel(s) : 2 channels
Sampling rate : 96.0 KHz
Bit depth : 24 bits
Stream size : 12.1 MiB (17%)


Трекер:  [ 24-Мар-2018 22:53 ]

  

Скачать .torrent

Размер .torrent файла 45 KB


Размер: 8.32 GB
Хэш (hash) релиза: f75a083fac3440d7571e4c26292e34739ad49595

Еще никто не оставлял запись к записи скачать торрент [Ukupskirts Pantyamateur.com] Megapack 2 x50 . Будь первым!

!Обратная связь