MasterChef.Australia.S10E43.HDTV.x264-SPC[ettv] | Spoilers – 3rd July 2018 Revised | Benedict Cumb...

Скачать через торрент Гарри Поттер и Крёстный отец. Возвращение Фильм бесплатно в хорошем качестве torrent

Скачивайте на UnionPeer.org фильмы через торрент без регистрации. Новинки кино в хорошем качестве через торрент. На UnionPeer.org можно скачать через торрент фильмы 2014 и 2015 годов. Самые новые фильмы.

Скачать торрент Гарри Поттер и Крёстный отец. Возвращение бесплатно через .torrent фильм мультфильм сериал

Статистика раздачи
Размер:  8.5 GB   |    Зарегистрирован:  3 месяца 25 дней   |    .torrent скачан:  128 раз   |   
Раздают:  1  
   
загрузка...
 
Автор Сообщение

Galfimbul

avatar Galfimbul


GREMLIN CREATIVE STUDIO

представляет

Гарри Поттер и Крёстный отец. Возвращение
Год выпуска: 2018 (Оригинал - 2004)
Страна: США
Жанр: пародия, комедия
Продолжительность: 02:11:34

Перевод: Профессиональный (дубляж) Доп.инфо о переводе Gremlin Creative Studio
Субтитры: нет
Режиссер: Альфонсо Куарон

В ролях: Гарри Поттер, Рыжий Петух, Стерва Грэйнджер, Скрудж МакДак, Хагрид, Ленин и др.

Описание: Лето Гарри традиционно проводит дома под гнётом приёмных родителей. Но после того, как к ним в гости пожаловала мерзкая тётка - сестра Вернона Дрисч, ситуация выходит из-под контроля, и очкастый решает валить. В пивнухе, куда он отправился, ему повстречались старые друзья - Стерва и Рыжий. И оттуда весёлая троица вновь стартует в Хогвартс - нестандартную во всех смыслах школу магии и не только.
Новые дисциплины, новые учителя, невыуеченные уроки - всё идёт своим чередом. Однако в Хогвартс проникает весть о том, что беглый маньяк-убийца бродит по окрестностям школы в поисках очередной глотки, которую он намерен порезать. Гарри уверен, что новая охрана любимого учебного заведения неспособна противостоять тому, кто сумел сбежать из Вологодского Пятака - тюремного острова. А узнав, что этот маньяк, Сириус Блэк, косвенно причастен к смерти его родителей, Поттер мечтает убить подонка. Но что, если всё это чья-то выдумка, а убийца на самом деле его близкий друг, и даже почти родственник?


Доп. информация: ВНИМАНИЕ! В переводе присутствуют мат, жёсткий стеб, черный юмор, пошлятина и разная нецензурщина. СОРТИРНЫЙ ЮМОР!!! Ввиду этого тем, кого не устраивает что-либо из вышесказанного, убедительная просьба НЕ КАЧАТЬ фильм, дабы не разводить демагогию в бестолковых постах. Также сообщаем, что данный перевод (озвучка) создан с юмором и ради юмора. И, конечно же, данный материал носит исключительно ознакомительный характер!

p.s.: релиз полноценного фильма состоялся 24 марта 2018г.

Официальный сайт студии

Качество: BDRip
Формат: MKV
Видео кодек: H.264
Аудио кодек: AC3
Видео: H264, 1920x800, 2.40:1, 23.976 fps, 8 800Kbps
Аудио: AC-3, 44.1 KHz, 448 Kbps, Stereo (Front: L R), 16 bits
СЭМПЛ
Format : Matroska
Format version : Version 4 / Version 2
File size : 8.50 GiB
Duration : 2 h 11 min
Overall bit rate : 9 250 kb/s
Encoded date : UTC 2018-03-22 18:53:31
Writing application : mkvmerge v8.9.0 ('Father Daughter') 64bit
Writing library : libebml v1.3.3 + libmatroska v1.4.4

Video
ID : 1
Format : AVC
Format/Info : Advanced Video Codec
Format profile : [email protected]
Format settings : CABAC / 4 Ref Frames
Format settings, CABAC : Yes
Format settings, ReFrames : 4 frames
Codec ID : V_MPEG4/ISO/AVC
Duration : 2 h 11 min
Bit rate : 8 800 kb/s
Width : 1 920 pixels
Height : 800 pixels
Display aspect ratio : 2.40:1
Frame rate mode : Constant
Frame rate : 23.976 (24000/1001) FPS
Color space : YUV
Chroma subsampling : 4:2:0
Bit depth : 8 bits
Scan type : Progressive
Bits/(Pixel*Frame) : 0.239
Stream size : 8.09 GiB (95%)
Title : HP3-GCS-VIDEO
Writing library : x264 core 155 r2901 7d0ff22
Encoding settings : cabac=1 / ref=3 / deblock=1:-1:-1 / analyse=0x3:0x113 / me=hex / subme=7 / psy=1 / psy_rd=1.00:0.15 / mixed_ref=1 / me_range=16 / chroma_me=1 / trellis=1 / 8x8dct=1 / cqm=0 / deadzone=21,11 / fast_pskip=1 / chroma_qp_offset=-3 / threads=12 / lookahead_threads=2 / sliced_threads=0 / nr=0 / decimate=1 / interlaced=0 / bluray_compat=0 / constrained_intra=0 / bframes=3 / b_pyramid=2 / b_adapt=1 / b_bias=0 / direct=1 / weightb=1 / open_gop=0 / weightp=2 / keyint=240 / keyint_min=23 / scenecut=40 / intra_refresh=0 / rc_lookahead=40 / rc=2pass / mbtree=1 / bitrate=8800 / ratetol=1.0 / qcomp=0.60 / qpmin=0 / qpmax=69 / qpstep=4 / cplxblur=20.0 / qblur=0.5 / ip_ratio=1.40 / aq=1:1.00
Language : Russian
Default : Yes
Forced : No

Audio
ID : 2
Format : AC-3
Format/Info : Audio Coding 3
Codec ID : A_AC3
Duration : 2 h 11 min
Bit rate mode : Constant
Bit rate : 448 kb/s
Channel(s) : 2 channels
Channel positions : Front: L R
Sampling rate : 44.1 kHz
Frame rate : 28.711 FPS (1536 SPF)
Bit depth : 16 bits
Compression mode : Lossy
Stream size : 422 MiB (5%)
Title : HP3-GCS-AUDIO-2-0
Language : Russian
Service kind : Complete Main
Default : Yes
Forced : No
- Что это ваще такое?????777
Данный фильм является переизданием (версией 2) выпущенного в 2005 г. "Гарри Поттер и Зек из Азкабана". В остальном, он продолжает линейку самых стёбных переводов о Гарри Поттере в озвучке GCS.
- Что-то изменено?
Изменено до 80% от предыдущей версии.
- Я не смотрел ни одного вашего Гарри!
Поздравляем.
- Где можно скачать саундтрек?
Ссылка появится, как только он будет выложен.
ГП (3) и Зек из Азкабана (старая версия) - к просмотру не рекомендуется
Гарри Поттер (4) и Турнир Смерти (удалён с трекера)
Гарри Поттер (1) и Фалософский камень. Новое начало
Гарри Поттер (2) и Зассанная комната/ Перезагрузка
Гарри Поттер (5) и Партия Ленина
Гарри Поттер (6) и Особая уличная магия
Гарри Поттер (7.1) и Белое Золото I
Гарри Поттер (7.2) и Белое Золото II


Трекер:  [ 24-Мар-2018 16:42 ]

  

Скачать .torrent

Размер .torrent файла 43 KB


Размер: 8.5 GB
Хэш (hash) релиза: 9ab9338621dee2dcef1f081cef3a7e9806ca6fee
Подписка на обновления:

Еще никто не оставлял запись к записи скачать торрент Гарри Поттер и Крёстный отец. Возвращение . Будь первым!

!Обратная связь