Glamour Girls
Gouls Just Wanna Have Fun

Скачать через торрент ПостКВН. Лига смеха 2018 Фильм бесплатно в хорошем качестве torrent

Скачивайте на UnionPeer.org фильмы через торрент без регистрации. Новинки кино в хорошем качестве через торрент. На UnionPeer.org можно скачать через торрент фильмы 2014 и 2015 годов. Самые новые фильмы.

Скачать торрент ПостКВН. Лига смеха 2018 бесплатно через .torrent фильм мультфильм сериал

Статистика раздачи
Размер:  3.07 GB   |    Зарегистрирован:  1 месяц 2 дня   |    .torrent скачан:  28 раз   |   
Раздают:  1  
   
загрузка...
 
Автор Сообщение

Galfimbul

avatar Galfimbul


ПостКВН. Лига смеха 2018.(03). Вторая игра/ Ліга сміху

Дата/Год выпуска: Эфир: 23.03.2018
Страна: Украина
Жанр: Юмористическое шоу
Продолжительность: 01:44:57
Перевод: Не требуется
Русские субтитры: нет

Оригинальная аудиодорожка: русский, украинский (~75/25)
Ведущий: Владимир Зеленский

Жюри: Ольга Полякова, Станислав Боклан, Юрий Ткач, Влад Яма, Евгений Кошевой, Игорь Ласточкин, Надя Дорофеева

Телеканал: 1+1
Описание: «Квартал 95» представляет юмористический проект «Лига cмеха», который закладывает основы нового молодежного движения в Украине. Теперь все желающие - СТЭМы, команды КВН и просто весёлые компании - могут попробовать свои силы и принять участие в чемпионате Украины по Юмору.

Доп. информация: "Квартал-95", "Драйв Продакшн"

Качество: WEB-DL 1080p
Формат: MKV
Видео: 1920x1080 (16:9), 25 fps, Mpeg4 AVC ~4000 kbps
Аудио: 48,0 КГц, AАС, 2 ch, 192.00 kbps
Приветствие:

Дурачество Порошенко и Гройсмана - Лукас
Жизнь бальника в 90-е - Гостиница 72
Доктор Зло и маленький Турчинов - Луганская Сборная
Когда батя главный, но это не точно - 30 +
Юмористический террор Нади Дорофеевой - Николь Кидман
Неадекватный мэр Царичанки - Стадион Диброва
Ласточкин тащил и Полякова вытащит - Стояновка

Батл:

Обратная разминка - Экспериментальный батл
Полное имя : D:\Торренты\Лига Смеха 2018 - Вторая 1-14\Лига Смеха Вторая игра (23.03.2018).mkvФормат : MatroskaВерсия формата : Version 4 / Version 2Размер файла : 3,07 ГбайтПродолжительность : 1 ч. 44 м.Общий поток : 4192 Кбит/секДата кодирования : UTC 2018-03-24 10:05:22Программа кодирования : mkvmerge v8.1.0 ('Psychedelic Postcard') 64bitБиблиотека кодирования : libebml v1.3.1 + libmatroska v1.4.2

ВидеоИдентификатор : 1Формат : AVCФормат/Информация : Advanced Video CodecПрофиль формата : [email protected]Параметр CABAC формата : ДаПараметр ReFrames формата : 3 кадраИдентификатор кодека : V_MPEG4/ISO/AVCПродолжительность : 1 ч. 44 м.Битрейт : 3998 Кбит/секШирина : 1912 пикселейШирина оригинала : 1920 пикселейВысота : 1088 пикселейВысота оригинала : 1080 пикселейСоотношение сторон : 16:9Соотношение сторон в оригинале : 16:9Режим частоты кадров : ПостоянныйЧастота кадров : 25,000 кадров/секЦветовое пространство : YUVСубдискретизация насыщенности : 4:2:0Битовая глубина : 8 битТип развёртки : ПрогрессивнаяБит/(Пиксели*Кадры) : 0.077Размер потока : 2,93 Гбайт (95%)Default : ДаForced : Нет

АудиоИдентификатор : 2Формат : AACФормат/Информация : Advanced Audio CodecПрофиль формата : LCИдентификатор кодека : A_AACПродолжительность : 1 ч. 44 м.Битрейт : 192 Кбит/секКаналы : 2 каналаРасположение каналов : Front: L RЧастота : 48,0 КГцЧастота кадров : 46,875 кадров/сек (1024 spf)Метод сжатия : С потерямиЗадержка видео : -40 мс.Размер потока : 144 Мбайт (5%)Заголовок : rus+ukrЯзык : RussianDefault : ДаForced : Нет


Трекер:  [ 24-Мар-2018 13:42 ]

  

Скачать .torrent

Размер .torrent файла 16 KB


Размер: 3.07 GB
Хэш (hash) релиза: ff94dfe7fe31fa1ee1c1af602b3e8fb16d354f11
Подписка на обновления:

Торренты, похожие на ПостКВН. Лига смеха 2018 скачать торрент

Форум Название Автор Размер S L Добавлен
Развлекательные телепередачи и шоу ·· ПостКВН. Лига смеха 2018.(07). Шестая игра / Ліга сміху [20.04.2018, Юмористическое шоу, WEB-DL 1080p] Galfimbul 29162243522.72 GB 0 0 1524314531

15:42

21-Апр-18

Развлекательные телепередачи и шоу ·· ПостКВН. Лига смеха 2018.(06). Пятая игра / Ліга сміху [13.04.2018, Юмористическое шоу, WEB-DL 1080p] Galfimbul 29812996692.78 GB 0 0 1523700732

13:12

14-Апр-18

Развлекательные телепередачи и шоу ·· ПостКВН. Лига смеха 2018.(05). Четвертая игра / Ліга сміху [06.04.2018, Юмористическое шоу, WEB-DL 1080p] Galfimbul 30298520212.82 GB 0 0 1523103132

15:12

7-Апр-18

Развлекательные телепередачи и шоу ·· ПостКВН. Лига смеха 2018.(04). Третья игра / Ліга сміху [30.03.2018, Юмористическое шоу, WEB-DL 1080p] Galfimbul 30236179752.82 GB 0 0 1522485731

11:42

31-Мар-18

Развлекательные телепередачи и шоу ·· ПостКВН. Лига смеха 2018.(02). Первая 1-14 / Ліга сміху [16.03.2018, Юмористическое шоу, WEB-DL 1080p] Galfimbul 33032939263.08 GB 0 0 1521290537

15:42

17-Мар-18

Развлекательные телепередачи и шоу ·· ПостКВН. Лига смеха 2018.(01). Фестиваль в Одессе, часть 1 / Ліга сміху [02.03.2018, Юмористическое шоу, WEB-DL 1080p] Galfimbul 32982221693.07 GB 0 0 1520108165

23:16

3-Мар-18

Еще никто не оставлял запись к записи скачать торрент ПостКВН. Лига смеха 2018 . Будь первым!

!Обратная связь