Doctor Stranger 20.Bölüm
the importance of economics - 1517 Words

Скачать через торрент Сборник выпусков киножурнала "Фитиль" Фильм бесплатно в хорошем качестве torrent

Скачивайте на UnionPeer.org фильмы через торрент без регистрации. Новинки кино в хорошем качестве через торрент. На UnionPeer.org можно скачать через торрент фильмы 2014 и 2015 годов. Самые новые фильмы.

Скачать торрент Сборник выпусков киножурнала "Фитиль" бесплатно через .torrent фильм мультфильм сериал

Статистика раздачи
Размер:  508 MB   |    Зарегистрирован:  1 месяц 2 дня   |    .torrent скачан:  55 раз   |   
Раздают:  1  
   
загрузка...
 
Автор Сообщение

Galfimbul

avatar Galfimbul


Cборник выпусков киножурнала "Фитиль"
Год выпуска: 2007.
Страна: Россия.
Жанр: Сатирический киножурнал.
Продолжительность: 5 серий от 2 до 5 минут.
Перевод: Не требуется.
Субтитры: нет.

Описание:
«Фитиль» — советский, затем российский телевизионный сатирико-юмористический критический киножурнал с элементами журналистского расследования.
В раздаче 5 эксклюзивных новелл.


Доп. информация:
1. "Рекламная пауза"
Автор: Я. Анин.
Режиссер: В. Златоустовский.
Оператор: А. Климачев.

2. "Медицина бессильна"
Автор: А. Трушкин.
Режиссер: В. Златоустовский.
Оператор: А. Климачев.
В ролях: А. Панкратов-Черный, Ю. Чернов, М.Родина.

3. Новое поколение выбирает...
Автор: Л. Лайнер.
Режиссер: В. Златоустовский.
Оператор: А. Чардынин.
В ролях: Л. Гаврилова.

4. "Караул! Насилуют!"
Автор: Г. Тверской.
Режиссер: В. Кольцов.
Оператор: Б. Бондаренко.
В ролях: А. Пятков, И. Шмелева.

5. ...коли рожа крива
Автор: Л. Лукьянов.
Режиссер-оператор: В. Мережков.
Большое спасибо NickK88442200 за предоставленый материал для рипа!!!



Качество: VHSRip
Формат: MPEG

Видео: 720x576, 25 fps, MPEG 2, 4167 Kbps
Аудио: MPEG Layer 2, 48 kHz, 2 ch, 224.00 kbps avg
General
Complete name : Fitil'.5.novell.2007.mpeg2.VHSRip.mpg
Format : MPEG-PS
File size : 508 MiB
Duration : 15mn 51s
Overall bit rate mode : Variable
Overall bit rate : 4 481 Kbps

Video
ID : 224 (0xE0)
Format : MPEG Video
Format version : Version 2
Format profile : [email protected]
Format settings, BVOP : Yes
Format settings, Matrix : Default
Format settings, GOP : M=3, N=12
Duration : 15mn 51s
Bit rate mode : Variable
Bit rate : 4 167 Kbps
Maximum bit rate : 6 000 Kbps
Width : 720 pixels
Height : 576 pixels
Display aspect ratio : 4:3
Frame rate : 25.000 fps
Standard : PAL
Color space : YUV
Chroma subsampling : 4:2:0
Bit depth : 8 bits
Scan type : Progressive
Compression mode : Lossy
Bits/(Pixel*Frame) : 0.402
Time code of first frame : 00:00:00:00
Time code source : Group of pictures header
GOP, Open/Closed : Open
GOP, Open/Closed of first f : Closed
Stream size : 472 MiB (93%)

Audio
ID : 192 (0xC0)
Format : MPEG Audio
Format version : Version 1
Format profile : Layer 2
Duration : 15mn 51s
Bit rate mode : Constant
Bit rate : 224 Kbps
Channel(s) : 2 channels
Sampling rate : 48.0 KHz
Compression mode : Lossy
Delay relative to video : 16ms
Stream size : 25.4 MiB (5%).


Трекер:  [ 23-Мар-2018 23:12 ]

  

Скачать .torrent

Размер .torrent файла 20 KB


Размер: 508 MB
Хэш (hash) релиза: 0e566bbec0ad1acda61f8c84b2bd71253bb5e3f1
Подписка на обновления:

Еще никто не оставлял запись к записи скачать торрент Сборник выпусков киножурнала "Фитиль" . Будь первым!

!Обратная связь