Contact Us | Leland Melvin | February 2013

Скачать через торрент Атака советских зомби Фильм бесплатно в хорошем качестве torrent

Скачивайте на UnionPeer.org фильмы через торрент без регистрации. Новинки кино в хорошем качестве через торрент. На UnionPeer.org можно скачать через торрент фильмы 2014 и 2015 годов. Самые новые фильмы.

Скачать торрент Атака советских зомби бесплатно через .torrent фильм мультфильм сериал

Статистика раздачи
Размер:  1.08 GB   |    Зарегистрирован:  3 месяца 27 дней   |    .torrent скачан:  171 раз   |   
Раздают:  1  
   
загрузка...
 
Автор Сообщение

Galfimbul

avatar Galfimbul


Атака советских зомби

Производство: Россия, Италия
Год выхода: 2016
Жанр: ужасы, триллер
Режиссер: Андреас Марфори
В ролях: Виктор Буланкин, Маргарита Куклина, Михаил Австрейх, Наталья Тринчина, Владимир Алеников, Иван Качалин, Анна Комкина, Татьяна Новик, Дмитрий Витер, Денис Колонтай

О фильме:
Четвёрка друзей ради забавы проникают в разрушенную больницу в самом центре Москвы. Друзья открывают страшный секрет, который хранят мрачные стены — жертвы экспериментов советской эпохи все еще бродят по грязным коридорам в поисках добычи.

Страна: Росия, Италия
Продолжительность: 00:45:58

Файл
Формат: Matroska
Качество: WEBRip 720p
Видео: 1280x720, ~3097 kbps, 23,976 fps
Звук: 48.00 kHz, АС3, 2 ch, ~192.00 kbps

Трейлер

Медиа инфо

Общее
Уникальный идентификатор : 240406618274298770260433512687722739071 (0xB4DCA16835305A9182900743F626B57F)
Полное имя : e:MMMMАтака.Советских.Зомби.2016.WEBRip.720p.mkv
Формат : Matroska
Версия формата : Version 4 / Version 2
Размер файла : 1,08 Гбайт
Продолжительность : 45 м. 57 с.
Общий поток : 3356 Кбит/сек
Дата кодирования : UTC 2018-03-21 16:50:36
Программа кодирования : mkvmerge v6.9.1 ('Blue Panther') 64bit built on Apr 18 2014 18:23:38
Библиотека кодирования : libebml v1.3.0 + libmatroska v1.4.1

Видео
Идентификатор : 1
Формат : AVC
Формат/Информация : Advanced Video Codec
Профиль формата : [email protected]
Настройки формата : CABAC / 4 Ref Frames
Параметр CABAC формата : Да
Параметр RefFrames формата : 4 кадра
Идентификатор кодека : V_MPEG4/ISO/AVC
Продолжительность : 45 м. 57 с.
Битрейт : 3097 Кбит/сек
Ширина : 1280 пикселей
Высота : 720 пикселей
Соотношение сторон : 16:9
Режим частоты кадров : Постоянный
Частота кадров : 23,976 (24000/1001) кадра/сек
Цветовое пространство : YUV
Субдискретизация насыщенности : 4:2:0
Битовая глубина : 8 бит
Тип развёртки : Прогрессивная
Бит/(Пиксели*Кадры) : 0.140
Размер потока : 1018 Мбайт (92%)
Библиотека кодирования : x264 core 146
Настройки программы : cabac=1 / ref=1 / deblock=1:0:0 / analyse=0x1:0x1 / me=dia / subme=1 / psy=1 / psy_rd=1.00:0.00 / mixed_ref=0 / me_range=16 / chroma_me=1 / trellis=0 / 8x8dct=0 / cqm=0 / deadzone=21,11 / fast_pskip=1 / chroma_qp_offset=0 / threads=3 / lookahead_threads=1 / sliced_threads=0 / nr=0 / decimate=1 / interlaced=0 / bluray_compat=0 / constrained_intra=0 / bframes=3 / b_pyramid=2 / b_adapt=1 / b_bias=0 / direct=1 / weightb=1 / open_gop=0 / weightp=1 / keyint=250 / keyint_min=23 / scenecut=40 / intra_refresh=0 / rc=crf / mbtree=0 / crf=23.0 / qcomp=0.60 / qpmin=0 / qpmax=69 / qpstep=4 / ip_ratio=1.40 / pb_ratio=1.30 / aq=1:1.00
Default : Да
Forced : Нет

Аудио
Идентификатор : 2
Формат : AC-3
Формат/Информация : Audio Coding 3
Идентификатор кодека : A_AC3
Продолжительность : 45 м. 57 с.
Вид битрейта : Постоянный
Битрейт : 192 Кбит/сек
Каналы : 2 канала
Расположение каналов : Front: L R
Частота : 48,0 КГц
Частота кадров : 31,250 кадров/сек (1536 SPF)
Битовая глубина : 16 бит
Метод сжатия : С потерями
Задержка видео : 18 мс.
Размер потока : 63,1 Мбайт (6%)
Заголовок : original
Язык : Russian
ServiceKind/String : Complete Main
Default : Да
Forced : Нет
Источник http://blator.org

Трекер:  [ 22-Мар-2018 16:20 ]

  

Скачать .torrent

Размер .torrent файла 11 KB


Размер: 1.08 GB
Хэш (hash) релиза: 319d4d813fec3dc9fb11b7fe54df94804670f6b1
Подписка на обновления:

Еще никто не оставлял запись к записи скачать торрент Атака советских зомби . Будь первым!

!Обратная связь