hacorghi
Survivor S36E07 HDTV x264-F43[ettv]

Скачать через торрент Орел и решка. Морской сезон Фильм бесплатно в хорошем качестве torrent

Скачивайте на UnionPeer.org фильмы через торрент без регистрации. Новинки кино в хорошем качестве через торрент. На UnionPeer.org можно скачать через торрент фильмы 2014 и 2015 годов. Самые новые фильмы.

Скачать торрент Орел и решка. Морской сезон бесплатно через .torrent фильм мультфильм сериал

Статистика раздачи
Размер:  1.56 GB   |    Зарегистрирован:  1 месяц 1 день   |    .torrent скачан:  38 раз   |   
Раздают:  1  
   
загрузка...
 
Автор Сообщение

Galfimbul

avatar Galfimbul


Орёл и решка
Морской сезон
Дата/Год выпуска: 2018
Страна: Украина
Жанр: Путешествия
Продолжительность: ~46 минуты
Перевод: Не требуется
Ведущие: Коля Серга и Маша Гамаюн

Телеканал: Iнтер
Описание: Коля Серга и Маша Гамаюн продолжают исследовать моря и океаны нашей планеты. В этот уикенд они отправятся на филиппинский остров Палаван. Богатый турист раскроет секреты самого красивого заповедника Азии - Эль-Нидо. Это 45 девственных островов с потаенными бухтами, неизведанными лагунами и белоснежными пустынными пляжами. А турист со 100 долларами умудрится прокатиться по самой большой подземной реке в мире, увидеть шоу уникальных жуков-светляков и поплавать сразу в двух морях - Сулу и Южно-Китайском.



качество: WEB-DL 1080p
формат: MP4
Видео: MPEG-4 AVC, ~ 2 996 Кбит/с, 1920x1080
Аудио: AАC, 2 ch, 126 Кбит/с
18 сезон, 1 серия - Хургада. Египет
18 сезон, 2 серия - Палаван. Филиппины
Format : MPEG-4Format profile : Base MediaCodec ID : isom (isom/iso2/avc1/mp41)File size : 1 017 MiBDuration : 45 min 27 sOverall bit rate : 3 128 kb/sEncoded date : UTC 1904-01-01 00:00:00Tagged date : UTC 1904-01-01 00:00:00Writing application : Lavf56.25.101

VideoID : 1Format : AVCFormat/Info : Advanced Video CodecFormat profile : [email protected] settings, CABAC : YesFormat settings, ReFrames : 3 framesCodec ID : avc1Codec ID/Info : Advanced Video CodingDuration : 45 min 27 sBit rate : 2 996 kb/sWidth : 1 920 pixelsHeight : 1 080 pixelsDisplay aspect ratio : 16:9Frame rate mode : ConstantFrame rate : 25.000 FPSColor space : YUVChroma subsampling : 4:2:0Bit depth : 8 bitsScan type : ProgressiveBits/(Pixel*Frame) : 0.058Stream size : 974 MiB (96%)Encoded date : UTC 1904-01-01 00:00:00Tagged date : UTC 1904-01-01 00:00:00Color range : LimitedColor primaries : BT.709Transfer characteristics : BT.709Matrix coefficients : BT.709

AudioID : 2Format : AACFormat/Info : Advanced Audio CodecFormat profile : LCCodec ID : 40Duration : 45 min 27 sBit rate mode : ConstantBit rate : 126 kb/sChannel(s) : 2 channelsChannel positions : Front: L RSampling rate : 44.1 kHzFrame rate : 43.066 FPS (1024 spf)Compression mode : LossyStream size : 40.8 MiB (4%)Default : YesAlternate group : 1Encoded date : UTC 1904-01-01 00:00:00Tagged date : UTC 1904-01-01 00:00:00


Трекер:  [ 20-Мар-2018 13:12 ]

  

Скачать .torrent

Размер .torrent файла 32 KB


Размер: 1.56 GB
Хэш (hash) релиза: 764d670ab328252f286bad2537a226bf0eda7611
Подписка на обновления:

Торренты, похожие на Орел и решка. Морской сезон скачать торрент

Форум Название Автор Размер S L Добавлен
Развлекательные телепередачи и шоу ·· Орёл и решка. Морской сезон (17 сезон) [2018, путешествия, SATRip] 1 выпуск из 20 Galfimbul 625321638596 MB 0 0 1520763275

13:14

11-Мар-18

Еще никто не оставлял запись к записи скачать торрент Орел и решка. Морской сезон . Будь первым!

!Обратная связь