Icon & Logo & Text Effects | Sweet Country | OpenLoad

Скачать через торрент Фильм бесплатно в хорошем качестве torrent

Скачивайте на UnionPeer.org фильмы через торрент без регистрации. Новинки кино в хорошем качестве через торрент. На UnionPeer.org можно скачать через торрент фильмы 2014 и 2015 годов. Самые новые фильмы.

Скачать торрент бесплатно через .torrent фильм мультфильм сериал

Статистика раздачи
Размер:  231 MB   |    Зарегистрирован:  4 месяца 1 день   |    .torrent скачан:  32 раза   |   
Раздают:  1  
   
загрузка...
 
Автор Сообщение

Galfimbul

avatar Galfimbul


Вадим Тонков, Борис Владимиров, Гарри Гриневич - ... И снова Маврикиевна ...

Жанр: Юмор
Носитель: CD
Страна-производитель диска (релиза): Россия
Год издания: 1996
Издатель (лейбл): AVA Records A 96001
Страна исполнителя: СССР
Аудиокодек: FLAC (*.flac)
Тип рипа: image+.cue
Битрейт аудио: lossless
Продолжительность: 53:05
Источник (релизер): frfr;t
Наличие сканов в содержимом раздачи: да

Треклист:

01. «Вступление»
02. «О мужчинах» Е.Смолин
03. «8 марта» А.Трушкин
04. «О чем говорят Вероника Маврикиевна и Авдотья Никитична». А.Ширвиндт, В.Тонков
05. «Между нами, женщинами» А.Хайт
06. «Москва» Г.Минников
07. «Юбилей» А.Рас
08. «О моде» В.Тонков, А.Назаров
09. «Угадайка» Е.Смолин
10. «Гороскоп» М.Задорнов, В.Тонков

В ролях:
Владимир Тонков,
Борис Владимиров,
Гарри Гриневич


Внимание! CD содержит фонограммы,переписанные с пластинок.
Exact Audio Copy V1.3 from 2. September 2016

Отчёт EAC об извлечении, выполненном 19. марта 2018, 16:33

Вадим Тонков, Борис Владимиров, Гарри Гриневич / ... И снова Маврикиевна ...

Дисковод: hp DVDRAM GT31N Adapter: 0 ID: 2

Режим чтения : ДостоверностьИспользование точного потока : ДаОтключение кэша аудио : ДаИспользование указателей C2 : Нет

Коррекция смещения при чтении : 103Способность читать области Lead-in и Lead-out : НетЗаполнение пропущенных сэмплов тишиной : ДаУдаление блоков с тишиной в начале и конце : НетПри вычислениях CRC использовались нулевые сэмплы : ДаИнтерфейс : Установленный внешний ASPI-интерфейс

Выходной формат : Пользовательский кодировщикВыбранный битрейт : 1024 kBit/sКачество : ВысокийДобавление ID3-тега : НетУтилита сжатия : C:\Program Files (x86)\Exact Audio Copy\Flac\flac.exeДополнительные параметры : -V -8 -T "Date=%year%" -T "Genre=%genre%" %source%

TOC извлечённого CD

Трек | Старт | Длительность | Начальный сектор | Конечный сектор --------------------------------------------------------------------- 1 | 0:00.25 | 0:11.40 | 25 | 889 2 | 0:11.65 | 4:54.10 | 890 | 22949 3 | 5:06.00 | 5:29.00 | 22950 | 47624 4 | 10:35.00 | 8:46.28 | 47625 | 87102 5 | 19:21.28 | 5:24.40 | 87103 | 111442 6 | 24:45.68 | 3:59.27 | 111443 | 129394 7 | 28:45.20 | 8:37.48 | 129395 | 168217 8 | 37:22.68 | 1:36.70 | 168218 | 175487 9 | 38:59.63 | 9:23.57 | 175488 | 217769 10 | 48:23.45 | 4:42.08 | 217770 | 238927

Характеристики диапазона извлечения и сообщения об ошибках

Выбранный диапазон

Пиковый уровень 100.0 % Скорость извлечения 2.1 X Качество диапазона 100.0 % CRC теста 8D5466A7 CRC копии 8D5466A7 Копирование... OK

Ошибок не произошло

Конец отчёта

==== Контрольная сумма отчёта 81A5FDE31220F5524E4482A27B59BF61ED561BA7EF2A27EC612AD7D5E94990C5 ====
REM GENRE HumourREM DATE 1996REM DISCID 770C710AREM COMMENT "ExactAudioCopy v1.3"PERFORMER "Вадим Тонков, Борис Владимиров, Гарри Гриневич"TITLE "... И снова Маврикиевна ..."REM COMPOSER ""FILE "Вадим Тонков, Борис Владимиров, Гарри Гриневич - ... И снова Маврикиевна ....flac" WAVE TRACK 01 AUDIO TITLE "Вступление" PERFORMER "Вадим Тонков, Борис Владимиров, Гарри Гриневич" REM COMPOSER "" INDEX 00 00:00:00 INDEX 01 00:00:25 TRACK 02 AUDIO TITLE "О Мужчинах" PERFORMER "Вадим Тонков, Борис Владимиров, Гарри Гриневич" REM COMPOSER "" INDEX 00 00:11:63 INDEX 01 00:11:65 TRACK 03 AUDIO TITLE "8 Марта" PERFORMER "Вадим Тонков, Борис Владимиров, Гарри Гриневич" REM COMPOSER "" INDEX 00 05:05:70 INDEX 01 05:06:00 TRACK 04 AUDIO TITLE "О Чём Говорят Вероника Маврикиевна И Авдотья Никитична" PERFORMER "Вадим Тонков, Борис Владимиров, Гарри Гриневич" REM COMPOSER "" INDEX 00 10:34:73 INDEX 01 10:35:00 TRACK 05 AUDIO TITLE "Меду Нами, Женщинами" PERFORMER "Вадим Тонков, Борис Владимиров, Гарри Гриневич" REM COMPOSER "" INDEX 00 19:21:25 INDEX 01 19:21:28 TRACK 06 AUDIO TITLE "Москва" PERFORMER "Вадим Тонков, Борис Владимиров, Гарри Гриневич" REM COMPOSER "" INDEX 00 24:45:63 INDEX 01 24:45:68 TRACK 07 AUDIO TITLE "Юбилей" PERFORMER "Гарри Гриневич" REM COMPOSER "" INDEX 00 28:45:15 INDEX 01 28:45:20 TRACK 08 AUDIO TITLE "О Моде" PERFORMER "Гарри Гриневич" REM COMPOSER "" INDEX 00 37:22:63 INDEX 01 37:22:68 TRACK 09 AUDIO TITLE "Угадайка" PERFORMER "Гарри Гриневич" REM COMPOSER "" INDEX 00 38:59:58 INDEX 01 38:59:63 TRACK 10 AUDIO TITLE "Гороскоп" PERFORMER "Гарри Гриневич" REM COMPOSER "" INDEX 00 48:23:40 INDEX 01 48:23:45


Трекер:  [ 20-Мар-2018 12:12 ]

  

Скачать .torrent

Размер .torrent файла 19 KB


Размер: 231 MB
Хэш (hash) релиза: 031c3a89478f1b6629e69b872576d67b8192e747
Подписка на обновления:

Еще никто не оставлял запись к записи скачать торрент . Будь первым!

!Обратная связь