Fiona Wang | Le guide du home staging pour mieux vendre sa maison | [AnimeRG] Dragon Ball Super - 052 [720p] [x264] [pseudo]

Скачать через торрент ПостКВН. Вечерний квартал Выпуск 107. 8 Марта, Часть 1 Фильм бесплатно в хорошем качестве torrent

Скачивайте на UnionPeer.org фильмы через торрент без регистрации. Новинки кино в хорошем качестве через торрент. На UnionPeer.org можно скачать через торрент фильмы 2014 и 2015 годов. Самые новые фильмы.

Скачать торрент ПостКВН. Вечерний квартал Выпуск 107. 8 Марта, Часть 1 бесплатно через .torrent фильм мультфильм сериал

Статистика раздачи
Размер:  2.57 GB   |    Зарегистрирован:  3 месяца 30 дней   |    .torrent скачан:  56 раз   |   
Раздают:  1  
   
загрузка...
 
Автор Сообщение

Galfimbul

avatar Galfimbul


ПостКВН. Вечерний квартал / Выпуск 107. 8 Марта, Часть 1 WEB-DL 1080p

Дата/Год выпуска: 17.03.2018
Страна: Украина
Жанр: Юмористическое шоу, концерт, сатира
Продолжительность: 01:27:40
Перевод: Не требуется
Русские субтитры: нет

Оригинальная аудиодорожка: русский, украинский (~95/5)
Режиссер: Студия "95 квартал"

Телеканал: Телеканал 1+1
Описание: Ребята из "Вечернего квартала" продолжают устанавливать свои правила. И ни авторитет звезд шоу-бизнеса, ни статус влиятельных политиков, ни сам "президент Украины" не могут этому помешать. Здесь правила одни для всех, и "квартальщики" внимательно следят за тем, чтобы все "забавные законы" соблюдались. Злостных правонарушителей ребята из Квартала определяют по отсутствию улыбки на лице. Но в сегодня такие вряд ли найдутся, ведь у нас - юмор высшего класса от "Вечернего квартала".

Качество: WEB-DL
Формат: MKV
Видео: MPEG4 Video (H264), 1920x1080, 25fps, 16:9, ~4000 kbps
Аудио: 44,1 kHz, AAC, 2 ch, 192 kbps
Загореть, чтобы не краснеть - Петр Инкогнито с супругой на Мальдивах
Запретить тебя любить невозможно
Проснулся в теле женщины - Владимир Зеленский
Жизнь распродажа, музыкальный Вечерний Квартал
Выпуск новостей на канале Дискавери
Шкура, алкаш, барыга - Муж научил попугая разговаривать
Люди выдающие себя за спортсменов на канале Фиаско ТВ
Выборы Путина Российской Федерации
У вас с Кравец было? - Владимир Зеленский смотрит Квартал с родителями
Краплі Весни - финальная песня
Полное имя : D:\Торренты\Вечерний квартал (17.03.2018)\Вечерний квартал (17.03.2018).mkvФормат : MatroskaВерсия формата : Version 4 / Version 2Размер файла : 2,57 ГбайтПродолжительность : 1 ч. 27 м.Общий поток : 4192 Кбит/секДата кодирования : UTC 2018-03-19 17:42:44Программа кодирования : mkvmerge v8.1.0 ('Psychedelic Postcard') 64bitБиблиотека кодирования : libebml v1.3.1 + libmatroska v1.4.2

ВидеоИдентификатор : 1Формат : AVCФормат/Информация : Advanced Video CodecПрофиль формата : [email protected]Параметр CABAC формата : ДаПараметр ReFrames формата : 3 кадраИдентификатор кодека : V_MPEG4/ISO/AVCПродолжительность : 1 ч. 27 м.Битрейт : 3998 Кбит/секШирина : 1912 пикселейШирина оригинала : 1920 пикселейВысота : 1088 пикселейВысота оригинала : 1080 пикселейСоотношение сторон : 16:9Соотношение сторон в оригинале : 16:9Режим частоты кадров : ПостоянныйЧастота кадров : 25,000 кадров/секЦветовое пространство : YUVСубдискретизация насыщенности : 4:2:0Битовая глубина : 8 битТип развёртки : ПрогрессивнаяБит/(Пиксели*Кадры) : 0.077Размер потока : 2,45 Гбайт (95%)Default : ДаForced : Нет

АудиоИдентификатор : 2Формат : AACФормат/Информация : Advanced Audio CodecПрофиль формата : LCИдентификатор кодека : A_AACПродолжительность : 1 ч. 27 м.Битрейт : 192 Кбит/секКаналы : 2 каналаРасположение каналов : Front: L RЧастота : 48,0 КГцЧастота кадров : 46,875 кадров/сек (1024 spf)Метод сжатия : С потерямиЗадержка видео : -40 мс.Размер потока : 120 Мбайт (5%)Заголовок : rus+ukrЯзык : RussianDefault : ДаForced : Нет


Трекер:  [ 19-Мар-2018 21:12 ]

  

Скачать .torrent

Размер .torrent файла 13 KB


Размер: 2.57 GB
Хэш (hash) релиза: d728e77d7f394a95bd08ace924a3ede34630112b
Подписка на обновления:

Еще никто не оставлял запись к записи скачать торрент ПостКВН. Вечерний квартал Выпуск 107. 8 Марта, Часть 1 . Будь первым!

!Обратная связь