Reality-T
血观音 The Bold the Corrupt and the Beautiful 2017 BD720P X264 AAC Mandari...

Скачать через торрент Шоу Эллен ДеДженерес The Ellen DeGeneres Show Фильм бесплатно в хорошем качестве torrent

Скачивайте на UnionPeer.org фильмы через торрент без регистрации. Новинки кино в хорошем качестве через торрент. На UnionPeer.org можно скачать через торрент фильмы 2014 и 2015 годов. Самые новые фильмы.

Скачать торрент Шоу Эллен ДеДженерес The Ellen DeGeneres Show бесплатно через .torrent фильм мультфильм сериал

Статистика раздачи
Размер:  7.08 GB   |    Зарегистрирован:  1 месяц   |    .torrent скачан:  24 раза   |   
Раздают:  1  
   
загрузка...
 
Автор Сообщение

Galfimbul

avatar Galfimbul


Шоу Эллен ДеДженерес / The Ellen DeGeneres Show / Сезон 15 - Выпуски 116-120 из ?

Дата/Год выпуска: 2017-2018
Страна: США
Жанр: Ток-шоу
Перевод: Отсутствует
Русские субтитры: нет
Оригинальная аудиодорожка: английский
Телеканалы: NBC, ABC, CBS
Описание: Дневное ток-шоу, в котором сочетаются интервью со знаменитостями, музыкальные выступления, игры с участием зрителей из зала и рубрики, посвященные обычным людям с необычными историями и талантами.

Качество: HDTVRip
Формат: TS/M2TS
<div class="sp-wrap">
<div class="sp-head folded">Выпуск 116; В гостях: Bill Hader, Auli'i Cravalho, Jon Dorenbos</div>
<div class="sp-body">Продолжительность: 00:41:22
Видео кодек: H264
Аудио кодек: AC3
Видео: H264 1280x720 4649 kb/s 59.94fps
Аудио: AC3 48000Hz 6ch 448kbps
<div class="sp-wrap">
<div class="sp-head folded">MediaInfo</div>
<div class="sp-body">Общее
Идентификатор : 1 (0x1)
Полное имя : E:\The Ellen DeGeneres Show S15\The Ellen DeGeneres Show Ep 116.ts
Формат : MPEG-TS
Размер файла : 1,55 Гбайт
Продолжительность : 41 м. 22 с.
Режим общего битрейта : Переменный
Общий поток : 5367 Кбит/сек
Название фильма :
Ограничение по возрасту : N/A

Видео
Идентификатор : 81 (0x51)
Идентификатор меню : 1 (0x1)
Формат : AVC
Формат/Информация : Advanced Video Codec
Профиль формата : [email protected]
Параметр CABAC формата : Да
Параметр RefFrames формата : 2 кадра
Идентификатор кодека : 27
Продолжительность : 41 м. 22 с.
Битрейт : 4649 Кбит/сек
Ширина : 1280 пикселей
Высота : 720 пикселей
Соотношение сторон : 16:9
Частота кадров : 59,940 (60000/1001) кадров/сек
Цветовое пространство : YUV
Субдискретизация насыщенности : 4:2:0
Битовая глубина : 8 бит
Тип развёртки : Прогрессивная
Бит/(Пиксели*Кадры) : 0.084
Размер потока : 1,34 Гбайт (87%)

Аудио
Идентификатор : 84 (0x54)
Идентификатор меню : 1 (0x1)
Формат : AC-3
Формат/Информация : Audio Coding 3
Параметр Endianness формата : Big
Идентификатор кодека : 129
Продолжительность : 41 м. 22 с.
Вид битрейта : Постоянный
Битрейт : 448 Кбит/сек
Каналы : 6 каналов
Расположение каналов : Front: L C R, Side: L R, LFE
Частота : 48,0 КГц
Частота кадров : 31,250 кадров/сек (1536 SPF)
Битовая глубина : 16 бит
Метод сжатия : С потерями
Размер потока : 133 Мбайт (8%)
Язык : English
ServiceKind/String : Complete Main

Текст #1
Идентификатор : 81 (0x51)-CC1
Идентификатор меню : 1 (0x1)
Формат : EIA-608
Режим смешивания : SCTE 128 / DTVCC Transport
Режим смешивания, доп. информация : Muxed in Video #1
Продолжительность : 41 м. 22 с.
Вид битрейта : Постоянный
Размер потока : 0,00 байт (0%)
CaptionServiceName : CC1

Текст #2
Идентификатор : 81 (0x51)-CC3
Идентификатор меню : 1 (0x1)
Формат : EIA-608
Режим смешивания : SCTE 128 / DTVCC Transport
Режим смешивания, доп. информация : Muxed in Video #1
Продолжительность : 41 м. 22 с.
Вид битрейта : Постоянный
Размер потока : 0,00 байт (0%)
CaptionServiceName : CC3

Текст #3
Идентификатор : 81 (0x51)-1
Идентификатор меню : 1 (0x1)
Формат : EIA-708
Режим смешивания : SCTE 128 / DTVCC Transport
Режим смешивания, доп. информация : Muxed in Video #1
Продолжительность : 41 м. 22 с.
Вид битрейта : Постоянный
Размер потока : 0,00 байт (0%)

Текст #4
Идентификатор : 81 (0x51)-2
Идентификатор меню : 1 (0x1)
Формат : EIA-708
Режим смешивания : SCTE 128 / DTVCC Transport
Режим смешивания, доп. информация : Muxed in Video #1
Продолжительность : 41 м. 22 с.
Вид битрейта : Постоянный
Размер потока : 0,00 байт (0%)
</div>
</div>
Продолжительность: 00:41:35
Видео кодек: H264
Аудио кодек: AC3
Видео: H264 1920x1080 3579 kb/s 59.94fps
Аудио: AC3 48000Hz 6ch 384kbps
<div class="sp-wrap">
<div class="sp-head folded">MediaInfo</div>
<div class="sp-body">Общее
Идентификатор : 1 (0x1)
Полное имя : E:\The Ellen DeGeneres Show S15\The Ellen DeGeneres Show Ep 117.ts
Формат : MPEG-TS
Размер файла : 1,21 Гбайт
Продолжительность : 41 м. 35 с.
Режим общего битрейта : Переменный
Общий поток : 4173 Кбит/сек
Название фильма : ELLEN 15116 SLATE
Ограничение по возрасту : TV-G

Видео
Идентификатор : 49 (0x31)
Идентификатор меню : 1 (0x1)
Формат : AVC
Формат/Информация : Advanced Video Codec
Профиль формата : [email protected]
Параметр CABAC формата : Да
Параметр RefFrames формата : 2 кадра
Идентификатор кодека : 27
Продолжительность : 41 м. 35 с.
Битрейт : 3579 Кбит/сек
Ширина : 1920 пикселей
Высота : 1080 пикселей
Соотношение сторон : 16:9
Частота кадров : 29,970 (30000/1001) кадров/сек
Цветовое пространство : YUV
Субдискретизация насыщенности : 4:2:0
Битовая глубина : 8 бит
Тип развёртки : MBAFF
Метод сохранения типа развёртки : Чередующиеся поля
Порядок развёртки : Верхнее поле первое
Бит/(Пиксели*Кадры) : 0.058
Размер потока : 1,04 Гбайт (86%)

Аудио
Идентификатор : 52 (0x34)
Идентификатор меню : 1 (0x1)
Формат : AC-3
Формат/Информация : Audio Coding 3
Параметр Endianness формата : Big
Идентификатор кодека : 129
Продолжительность : 41 м. 35 с.
Вид битрейта : Постоянный
Битрейт : 384 Кбит/сек
Каналы : 6 каналов
Расположение каналов : Front: L C R, Side: L R, LFE
Частота : 48,0 КГц
Частота кадров : 31,250 кадров/сек (1536 SPF)
Битовая глубина : 16 бит
Метод сжатия : С потерями
Размер потока : 114 Мбайт (9%)
Язык : English
ServiceKind/String : Complete Main

Текст #1
Идентификатор : 49 (0x31)-CC1
Идентификатор меню : 1 (0x1)
Формат : EIA-608
Режим смешивания : SCTE 128 / DTVCC Transport
Режим смешивания, доп. информация : Muxed in Video #1
Продолжительность : 41 м. 35 с.
Вид битрейта : Постоянный
Размер потока : 0,00 байт (0%)
CaptionServiceName : CC1

Текст #2
Идентификатор : 49 (0x31)-CC3
Идентификатор меню : 1 (0x1)
Формат : EIA-608
Режим смешивания : SCTE 128 / DTVCC Transport
Режим смешивания, доп. информация : Muxed in Video #1
Продолжительность : 41 м. 35 с.
Вид битрейта : Постоянный
Размер потока : 0,00 байт (0%)
CaptionServiceName : CC3

Текст #3
Идентификатор : 49 (0x31)-1
Идентификатор меню : 1 (0x1)
Формат : EIA-708
Режим смешивания : SCTE 128 / DTVCC Transport
Режим смешивания, доп. информация : Muxed in Video #1
Продолжительность : 41 м. 35 с.
Вид битрейта : Постоянный
Размер потока : 0,00 байт (0%)

Текст #4
Идентификатор : 49 (0x31)-2
Идентификатор меню : 1 (0x1)
Формат : EIA-708
Режим смешивания : SCTE 128 / DTVCC Transport
Режим смешивания, доп. информация : Muxed in Video #1
Продолжительность : 41 м. 35 с.
Вид битрейта : Постоянный
Размер потока : 0,00 байт (0%)

Текст #5
Идентификатор : 49 (0x31)-3
Идентификатор меню : 1 (0x1)
Формат : EIA-708
Режим смешивания : SCTE 128 / DTVCC Transport
Режим смешивания, доп. информация : Muxed in Video #1
Продолжительность : 41 м. 35 с.
Вид битрейта : Постоянный
Размер потока : 0,00 байт (0%)

Текст #6
Идентификатор : 49 (0x31)-4
Идентификатор меню : 1 (0x1)
Формат : EIA-708
Режим смешивания : SCTE 128 / DTVCC Transport
Режим смешивания, доп. информация : Muxed in Video #1
Продолжительность : 41 м. 35 с.
Вид битрейта : Постоянный
Размер потока : 0,00 байт (0%)

Текст #7
Идентификатор : 49 (0x31)-5
Идентификатор меню : 1 (0x1)
Формат : EIA-708
Режим смешивания : SCTE 128 / DTVCC Transport
Режим смешивания, доп. информация : Muxed in Video #1
Продолжительность : 41 м. 35 с.
Вид битрейта : Постоянный
Размер потока : 0,00 байт (0%)

Текст #8
Идентификатор : 49 (0x31)-6
Идентификатор меню : 1 (0x1)
Формат : EIA-708
Режим смешивания : SCTE 128 / DTVCC Transport
Режим смешивания, доп. информация : Muxed in Video #1
Продолжительность : 41 м. 35 с.
Вид битрейта : Постоянный
Размер потока : 0,00 байт (0%)
</div>
</div>
Продолжительность: 00:41:35
Видео кодек: H264
Аудио кодек: AC3
Видео: H264 1920x1080 3582 kb/s 59.94fps
Аудио: AC3 48000Hz 6ch 384kbps
<div class="sp-wrap">
<div class="sp-head folded">MediaInfo</div>
<div class="sp-body">Общее
Идентификатор : 1 (0x1)
Полное имя : E:\The Ellen DeGeneres Show S15\The Ellen DeGeneres Show Ep 118.ts
Формат : MPEG-TS
Размер файла : 1,21 Гбайт
Продолжительность : 41 м. 35 с.
Режим общего битрейта : Переменный
Общий поток : 4177 Кбит/сек
Название фильма : ELLEN 15117 SLATE
Ограничение по возрасту : TV-G

Видео
Идентификатор : 49 (0x31)
Идентификатор меню : 1 (0x1)
Формат : AVC
Формат/Информация : Advanced Video Codec
Профиль формата : [email protected]
Параметр CABAC формата : Да
Параметр RefFrames формата : 2 кадра
Идентификатор кодека : 27
Продолжительность : 41 м. 35 с.
Битрейт : 3582 Кбит/сек
Ширина : 1920 пикселей
Высота : 1080 пикселей
Соотношение сторон : 16:9
Частота кадров : 29,970 (30000/1001) кадров/сек
Цветовое пространство : YUV
Субдискретизация насыщенности : 4:2:0
Битовая глубина : 8 бит
Тип развёртки : MBAFF
Метод сохранения типа развёртки : Чередующиеся поля
Порядок развёртки : Верхнее поле первое
Бит/(Пиксели*Кадры) : 0.058
Размер потока : 1,04 Гбайт (86%)

Аудио
Идентификатор : 52 (0x34)
Идентификатор меню : 1 (0x1)
Формат : AC-3
Формат/Информация : Audio Coding 3
Параметр Endianness формата : Big
Идентификатор кодека : 129
Продолжительность : 41 м. 35 с.
Вид битрейта : Постоянный
Битрейт : 384 Кбит/сек
Каналы : 6 каналов
Расположение каналов : Front: L C R, Side: L R, LFE
Частота : 48,0 КГц
Частота кадров : 31,250 кадров/сек (1536 SPF)
Битовая глубина : 16 бит
Метод сжатия : С потерями
Размер потока : 114 Мбайт (9%)
Язык : English
ServiceKind/String : Complete Main

Текст #1
Идентификатор : 49 (0x31)-CC1
Идентификатор меню : 1 (0x1)
Формат : EIA-608
Режим смешивания : SCTE 128 / DTVCC Transport
Режим смешивания, доп. информация : Muxed in Video #1
Продолжительность : 41 м. 35 с.
Вид битрейта : Постоянный
Размер потока : 0,00 байт (0%)
CaptionServiceName : CC1

Текст #2
Идентификатор : 49 (0x31)-CC3
Идентификатор меню : 1 (0x1)
Формат : EIA-608
Режим смешивания : SCTE 128 / DTVCC Transport
Режим смешивания, доп. информация : Muxed in Video #1
Продолжительность : 41 м. 35 с.
Вид битрейта : Постоянный
Размер потока : 0,00 байт (0%)
CaptionServiceName : CC3

Текст #3
Идентификатор : 49 (0x31)-1
Идентификатор меню : 1 (0x1)
Формат : EIA-708
Режим смешивания : SCTE 128 / DTVCC Transport
Режим смешивания, доп. информация : Muxed in Video #1
Продолжительность : 41 м. 35 с.
Вид битрейта : Постоянный
Размер потока : 0,00 байт (0%)

Текст #4
Идентификатор : 49 (0x31)-2
Идентификатор меню : 1 (0x1)
Формат : EIA-708
Режим смешивания : SCTE 128 / DTVCC Transport
Режим смешивания, доп. информация : Muxed in Video #1
Продолжительность : 41 м. 35 с.
Вид битрейта : Постоянный
Размер потока : 0,00 байт (0%)

Текст #5
Идентификатор : 49 (0x31)-3
Идентификатор меню : 1 (0x1)
Формат : EIA-708
Режим смешивания : SCTE 128 / DTVCC Transport
Режим смешивания, доп. информация : Muxed in Video #1
Продолжительность : 41 м. 35 с.
Вид битрейта : Постоянный
Размер потока : 0,00 байт (0%)

Текст #6
Идентификатор : 49 (0x31)-4
Идентификатор меню : 1 (0x1)
Формат : EIA-708
Режим смешивания : SCTE 128 / DTVCC Transport
Режим смешивания, доп. информация : Muxed in Video #1
Продолжительность : 41 м. 35 с.
Вид битрейта : Постоянный
Размер потока : 0,00 байт (0%)

Текст #7
Идентификатор : 49 (0x31)-5
Идентификатор меню : 1 (0x1)
Формат : EIA-708
Режим смешивания : SCTE 128 / DTVCC Transport
Режим смешивания, доп. информация : Muxed in Video #1
Продолжительность : 41 м. 35 с.
Вид битрейта : Постоянный
Размер потока : 0,00 байт (0%)

Текст #8
Идентификатор : 49 (0x31)-6
Идентификатор меню : 1 (0x1)
Формат : EIA-708
Режим смешивания : SCTE 128 / DTVCC Transport
Режим смешивания, доп. информация : Muxed in Video #1
Продолжительность : 41 м. 35 с.
Вид битрейта : Постоянный
Размер потока : 0,00 байт (0%)
</div>
</div>
Продолжительность: 00:41:23
Видео кодек: H264
Аудио кодек: AC3
Видео: H264 1280x720 4649 kb/s 59.94fps
Аудио: AC3 48000Hz 6ch 448kbps
<div class="sp-wrap">
<div class="sp-head folded">MediaInfo</div>
<div class="sp-body">Общее
Идентификатор : 1 (0x1)
Полное имя : E:\The Ellen DeGeneres Show S15\The Ellen DeGeneres Show Ep 119.ts
Формат : MPEG-TS
Размер файла : 1,55 Гбайт
Продолжительность : 41 м. 23 с.
Режим общего битрейта : Переменный
Общий поток : 5367 Кбит/сек
Название фильма :
Ограничение по возрасту : N/A

Видео
Идентификатор : 81 (0x51)
Идентификатор меню : 1 (0x1)
Формат : AVC
Формат/Информация : Advanced Video Codec
Профиль формата : [email protected]
Параметр CABAC формата : Да
Параметр RefFrames формата : 2 кадра
Идентификатор кодека : 27
Продолжительность : 41 м. 23 с.
Битрейт : 4649 Кбит/сек
Ширина : 1280 пикселей
Высота : 720 пикселей
Соотношение сторон : 16:9
Частота кадров : 59,940 (60000/1001) кадров/сек
Цветовое пространство : YUV
Субдискретизация насыщенности : 4:2:0
Битовая глубина : 8 бит
Тип развёртки : Прогрессивная
Бит/(Пиксели*Кадры) : 0.084
Размер потока : 1,34 Гбайт (87%)

Аудио
Идентификатор : 84 (0x54)
Идентификатор меню : 1 (0x1)
Формат : AC-3
Формат/Информация : Audio Coding 3
Параметр Endianness формата : Big
Идентификатор кодека : 129
Продолжительность : 41 м. 23 с.
Вид битрейта : Постоянный
Битрейт : 448 Кбит/сек
Каналы : 6 каналов
Расположение каналов : Front: L C R, Side: L R, LFE
Частота : 48,0 КГц
Частота кадров : 31,250 кадров/сек (1536 SPF)
Битовая глубина : 16 бит
Метод сжатия : С потерями
Задержка видео : -16 мс.
Размер потока : 133 Мбайт (8%)
Язык : English
ServiceKind/String : Complete Main

Текст #1
Идентификатор : 81 (0x51)-CC1
Идентификатор меню : 1 (0x1)
Формат : EIA-608
Режим смешивания : SCTE 128 / DTVCC Transport
Режим смешивания, доп. информация : Muxed in Video #1
Продолжительность : 41 м. 23 с.
Вид битрейта : Постоянный
Размер потока : 0,00 байт (0%)
CaptionServiceName : CC1

Текст #2
Идентификатор : 81 (0x51)-CC3
Идентификатор меню : 1 (0x1)
Формат : EIA-608
Режим смешивания : SCTE 128 / DTVCC Transport
Режим смешивания, доп. информация : Muxed in Video #1
Продолжительность : 41 м. 23 с.
Вид битрейта : Постоянный
Размер потока : 0,00 байт (0%)
CaptionServiceName : CC3

Текст #3
Идентификатор : 81 (0x51)-1
Идентификатор меню : 1 (0x1)
Формат : EIA-708
Режим смешивания : SCTE 128 / DTVCC Transport
Режим смешивания, доп. информация : Muxed in Video #1
Продолжительность : 41 м. 23 с.
Вид битрейта : Постоянный
Размер потока : 0,00 байт (0%)

Текст #4
Идентификатор : 81 (0x51)-2
Идентификатор меню : 1 (0x1)
Формат : EIA-708
Режим смешивания : SCTE 128 / DTVCC Transport
Режим смешивания, доп. информация : Muxed in Video #1
Продолжительность : 41 м. 23 с.
Вид битрейта : Постоянный
Размер потока : 0,00 байт (0%)
</div>
</div>
Продолжительность: 00:41:23
Видео кодек: H264
Аудио кодек: AC3
Видео: H264 1280x720 4656 kb/s 59.94fps
Аудио: AC3 48000Hz 6ch 448kbps
<div class="sp-wrap">
<div class="sp-head folded">MediaInfo</div>
<div class="sp-body">Общее
Идентификатор : 1 (0x1)
Полное имя : E:\The Ellen DeGeneres Show S15\The Ellen DeGeneres Show Ep 120.ts
Формат : MPEG-TS
Размер файла : 1,55 Гбайт
Продолжительность : 41 м. 23 с.
Режим общего битрейта : Переменный
Общий поток : 5374 Кбит/сек
Название фильма : GENERAL HOSPITAL
Ограничение по возрасту : N/A

Видео
Идентификатор : 81 (0x51)
Идентификатор меню : 1 (0x1)
Формат : AVC
Формат/Информация : Advanced Video Codec
Профиль формата : [email protected]
Параметр CABAC формата : Да
Параметр RefFrames формата : 2 кадра
Идентификатор кодека : 27
Продолжительность : 41 м. 23 с.
Битрейт : 4656 Кбит/сек
Ширина : 1280 пикселей
Высота : 720 пикселей
Соотношение сторон : 16:9
Частота кадров : 59,940 (60000/1001) кадров/сек
Цветовое пространство : YUV
Субдискретизация насыщенности : 4:2:0
Битовая глубина : 8 бит
Тип развёртки : Прогрессивная
Бит/(Пиксели*Кадры) : 0.084
Размер потока : 1,35 Гбайт (87%)

Аудио
Идентификатор : 84 (0x54)
Идентификатор меню : 1 (0x1)
Формат : AC-3
Формат/Информация : Audio Coding 3
Параметр Endianness формата : Big
Идентификатор кодека : 129
Продолжительность : 41 м. 23 с.
Вид битрейта : Постоянный
Битрейт : 448 Кбит/сек
Каналы : 6 каналов
Расположение каналов : Front: L C R, Side: L R, LFE
Частота : 48,0 КГц
Частота кадров : 31,250 кадров/сек (1536 SPF)
Битовая глубина : 16 бит
Метод сжатия : С потерями
Размер потока : 133 Мбайт (8%)
Язык : English
ServiceKind/String : Complete Main

Текст #1
Идентификатор : 81 (0x51)-CC1
Идентификатор меню : 1 (0x1)
Формат : EIA-608
Режим смешивания : SCTE 128 / DTVCC Transport
Режим смешивания, доп. информация : Muxed in Video #1
Продолжительность : 41 м. 23 с.
Вид битрейта : Постоянный
Размер потока : 0,00 байт (0%)
CaptionServiceName : CC1

Текст #2
Идентификатор : 81 (0x51)-CC3
Идентификатор меню : 1 (0x1)
Формат : EIA-608
Режим смешивания : SCTE 128 / DTVCC Transport
Режим смешивания, доп. информация : Muxed in Video #1
Продолжительность : 41 м. 23 с.
Вид битрейта : Постоянный
Размер потока : 0,00 байт (0%)
CaptionServiceName : CC3

Текст #3
Идентификатор : 81 (0x51)-1
Идентификатор меню : 1 (0x1)
Формат : EIA-708
Режим смешивания : SCTE 128 / DTVCC Transport
Режим смешивания, доп. информация : Muxed in Video #1
Продолжительность : 41 м. 23 с.
Вид битрейта : Постоянный
Размер потока : 0,00 байт (0%)

Текст #4
Идентификатор : 81 (0x51)-2
Идентификатор меню : 1 (0x1)
Формат : EIA-708
Режим смешивания : SCTE 128 / DTVCC Transport
Режим смешивания, доп. информация : Muxed in Video #1
Продолжительность : 41 м. 23 с.
Вид битрейта : Постоянный
Размер потока : 0,00 байт (0%)
</div>
</div>
</div>
</div>
Раздача ведётся путём добавления новых выпусков!
При каждом добавлении создаётся новый торрент. Чтобы начать докачку нового выпуска, пользователям необходимо сделать следующее:
1) Остановить скачивание,
2) Удалить старый торрент у себя из клиента (старые выпуски удалять не надо),
3) Скачать новый торрент и запустить его у себя в клиенте вместо старого, при этом указать клиенту путь в старую папку куда и должно происходить скачивание новых выпусков.

Ваш клиент при этом должен произвести хеширование (проверку) старой папки (если не производит сам - помогите ему сделать это), и будет докачивать только те выпуски которых у вас ещё нет. Старые выпуски при этом не удаляются, а продолжают раздаваться!

Eсли вы уже удалили старые выпуски, то предотвратить повторную закачку старых выпусков можно, отжав галочку в соответствующих местах при запуске нового торрента.


Трекер:  [ 19-Мар-2018 13:12 ]

  

Скачать .torrent

Размер .torrent файла 18 KB


Размер: 7.08 GB
Хэш (hash) релиза: 748dd0a7da6010be54468cc04ee53e6cec9fef28
Подписка на обновления:

Еще никто не оставлял запись к записи скачать торрент Шоу Эллен ДеДженерес The Ellen DeGeneres Show . Будь первым!

!Обратная связь